<?xml version="1.0" standalone="no"?>
<!DOCTYPE svg PUBLIC "-//W3C//DTD SVG 1.1//EN" "http://www.w3.org/Graphics/SVG/1.1/DTD/svg11.dtd">
<svg xmlns="http://www.w3.org/2000/svg">
<defs >
<font id="Rubik" horiz-adv-x="622" ><font-face
    font-family="Rubik Medium"
    units-per-em="1000"
    panose-1="0 0 0 0 0 0 0 0 0 0"
    ascent="935"
    descent="-250"
    alphabetic="0" />
<glyph unicode=" " glyph-name="space" horiz-adv-x="229" />
<glyph unicode="!" glyph-name="exclam" horiz-adv-x="268" d="M93 194Q83 194 76 200T69 218V676Q69 686 76 693T93 700H174Q185 700 191 693T198 676V218Q198 207 192 201T174 194H93ZM87 0Q77 0 70 7T63 24V117Q63 128 70 135T87 142H180Q191 142 198 135T205
117V24Q205 14 198 7T180 0H87Z" />
<glyph unicode="&quot;" glyph-name="quotedbl" horiz-adv-x="413" d="M275 467Q263 467 258 474T251 492L231 684Q230 696 236 703T253 710H342Q353 710 359 703T364 684L344 492Q343 482 338 475T320 467H275ZM93 467Q80 467 75 474T68 492L49 684Q47 696 53
703T71 710H159Q170 710 176 703T182 684L162 492Q161 482 156 475T137 467H93Z" />
<glyph unicode="#" glyph-name="numbersign" horiz-adv-x="691" d="M160 39Q151 39 145 45T139 60L155 169H70Q60 169 54 175T47 192V248Q47 259 53 265T70 271H170L193 423H96Q86 423 80 429T73 446V502Q73 513 79 519T96 525H208L225 634Q227 642 232 648T248
655H306Q315 655 321 649T326 634L310 525H435L452 634Q454 642 459 648T475 655H533Q542 655 548 649T553 634L537 525H621Q631 525 637 519T644 502V446Q644 436 638 430T621 423H522L500 271H595Q605 271 611 265T618 248V192Q618 182 612 176T595 169H484L468
60Q465 39 445 39H387Q378 39 372 45T366 60L382 169H257L241 60Q238 39 218 39H160ZM273 271H397L420 423H295L273 271Z" />
<glyph unicode="$" glyph-name="dollar" horiz-adv-x="643" d="M290 -100Q280 -100 273 -93T266 -76V-6Q192 1 141 29T64 98T36 183Q36 192 42 198T58 204H147Q159 204 166 199T177 185Q184 166 200 148T247 117T322 105Q394 105 429 129T464 194Q464 223 446
240T387 272T282 303Q208 321 157 346T81 411T55 510Q55 587 111 641T266 707V776Q266 786 273 793T290 800H351Q361 800 368 793T375 776V705Q443 695 489 665T559 597T584 522Q584 514 579 508T563 501H470Q461 501 453 505T440 520Q435 551 402 573T316 595Q262
595 230 575T197 513Q197 485 213 467T265 434T363 404Q448 385 501 360T580 297T606 199Q606 141 578 98T497 28T375 -7V-76Q375 -86 368 -93T351 -100H290Z" />
<glyph unicode="%" glyph-name="percent" horiz-adv-x="784" d="M110 0Q89 0 89 20Q89 26 93 31L586 681Q593 690 600 695T620 700H673Q694 700 694 680Q694 674 690 669L197 19Q190 10 184 5T163 0H110ZM591 -6Q524 -6 485 31T442 128Q441 154 441 173T442 220Q446
280 483 317T591 354Q662 354 699 317T740 220Q742 192 742 173T740 128Q737 68 698 31T591 -6ZM591 72Q613 72 625 81T644 104T650 132Q652 157 652 174T650 215Q649 239 636 258T591 277Q560 277 547 258T532 215Q531 192 531 175T532 132Q534 118 539 104T557
81T591 72ZM192 348Q125 348 86 383T43 478Q42 504 42 523T43 571Q47 631 84 668T192 705Q263 705 300 668T341 571Q343 543 343 524T341 478Q338 418 299 383T192 348ZM192 422Q214 422 226 431T245 454T251 483Q253 508 253 525T251 566Q250 589 237 608T192
627Q161 627 148 608T134 566Q133 543 133 526T134 483Q135 468 140 454T158 431T192 422Z" />
<glyph unicode="&amp;" glyph-name="ampersand" horiz-adv-x="718" d="M293 -10Q220 -10 166 14T81 84T50 191Q50 235 68 269T117 331T188 382Q145 427 127 464T109 539Q109 585 133 623T202 686T312 710Q373 710 416 687T484 626T508 541Q508 499 489 467T436
408T362 359L506 216Q518 236 533 268T559 349Q562 366 580 366H653Q662 366 667 361T673 346Q672 325 665 300T645 247T616 192T582 141L688 33Q696 26 696 18Q696 10 691 5T677 0H581Q571 0 565 3T554 10L499 64Q459 29 409 10T293 -10ZM293 93Q328 93 361 106T422
145L262 303Q227 284 202 258T176 195Q176 163 192 141T236 106T293 93ZM292 433Q319 448 342 463T378 496T392 538Q392 572 369 592T311 612Q279 612 255 593T230 538Q230 523 235 508T254 476T292 433Z" />
<glyph unicode="&apos;" glyph-name="quotesingle" horiz-adv-x="230" d="M93 467Q80 467 75 474T68 492L49 684Q47 696 53 703T71 710H159Q170 710 176 703T182 684L162 492Q161 482 156 475T137 467H93Z" />
<glyph unicode="(" glyph-name="parenleft" horiz-adv-x="361" d="M313 -159Q247 -159 197 -132T115 -49T66 97T50 309Q50 433 66 521T114 666T197 749T313 776Q323 776 330 769T337 752V692Q337 682 331 675T315 668Q274 666 246 645T202 580T178 469T171 309Q171
216 178 149T201 38T246 -27T315 -51Q324 -51 330 -58T337 -75V-135Q337 -145 330 -152T313 -159Z" />
<glyph unicode=")" glyph-name="parenright" horiz-adv-x="361" d="M48 -159Q38 -159 31 -152T24 -135V-75Q24 -65 30 -58T46 -51Q88 -49 115 -28T159 38T183 149T191 309Q191 402 184 469T160 579T116 644T46 668Q37 668 31 675T24 692V752Q24 762 31 769T48
776Q114 776 164 750T246 667T295 522T311 309Q311 186 295 97T247 -48T164 -132T48 -159Z" />
<glyph unicode="*" glyph-name="asterisk" horiz-adv-x="445" d="M150 399L92 442Q85 447 84 456T87 472Q87 473 93 479L161 539L70 548Q66 549 65 549T62 550Q55 552 51 560T48 578L71 647Q73 655 82 659T98 661Q100 661 106 657L185 611L165 700Q164 704 164
705T164 708Q164 716 170 723T186 730H259Q268 730 274 723T281 708Q281 707 281 706T280 700L259 610L339 657Q346 661 347 661Q355 663 363 659T374 647L397 578Q399 569 395 561T383 550Q382 550 381 550T375 548L283 539L352 479Q358 473 358 472Q363 466 362
457T353 442L295 399Q287 395 278 396T264 404Q264 405 263 406T260 411L223 496L186 411Q185 408 184 407T181 404Q177 397 168 396T150 399Z" />
<glyph unicode="+" glyph-name="plus" horiz-adv-x="614" d="M278 33Q268 33 261 40T254 57V252H62Q52 252 45 259T38 277V329Q38 340 45 346T62 353H254V543Q254 553 261 560T278 567H336Q347 567 353 560T360 543V353H552Q562 353 569 347T576 329V277Q576 266
569 259T552 252H360V57Q360 47 354 40T336 33H278Z" />
<glyph unicode="," glyph-name="comma" horiz-adv-x="264" d="M60 -75Q51 -75 46 -69T42 -54L69 116Q71 129 78 138T101 148H193Q201 148 206 143T211 129Q211 122 208 116L144 -50Q140 -60 133 -67T111 -75H60Z" />
<glyph unicode="-" glyph-name="hyphen" horiz-adv-x="481" d="M87 243Q76 243 70 250T63 267V333Q63 343 69 350T87 357H394Q404 357 411 350T418 333V267Q418 257 411 250T394 243H87Z" />
<glyph unicode="." glyph-name="period" horiz-adv-x="268" d="M84 0Q74 0 67 7T60 24V123Q60 134 67 141T84 148H184Q194 148 201 141T208 123V24Q208 14 201 7T184 0H84Z" />
<glyph unicode="/" glyph-name="slash" horiz-adv-x="508" d="M45 -84Q37 -84 31 -78T25 -63Q25 -59 27 -52L368 765Q371 772 378 779T398 786H463Q471 786 477 780T484 765Q484 761 481 754L140 -63Q137 -69 130 -76T109 -84H45Z" />
<glyph unicode="0" glyph-name="zero" horiz-adv-x="657" d="M328 -10Q257 -10 207 11T125 69T77 154T58 258Q57 285 57 317T56 383T58 444Q60 499 77 547T126 632T209 689T328 710Q398 710 448 689T530 632T579 548T598 444Q600 416 600 383T600 318T598 258Q596
203 580 155T532 69T450 11T328 -10ZM328 105Q393 105 423 147T455 263Q457 292 457 321T457 381T455 438Q454 509 424 552T328 596Q264 596 234 553T201 438Q201 411 201 381T200 322T201 263Q203 190 234 148T328 105Z" />
<glyph unicode="1" glyph-name="one" horiz-adv-x="463" d="M277 0Q266 0 260 7T253 24V542L101 425Q92 419 83 420T67 431L25 485Q19 494 20 504T31 520L255 693Q261 698 267 699T280 700H368Q378 700 385 693T392 676V24Q392 14 385 7T368 0H277Z" />
<glyph unicode="2" glyph-name="two" horiz-adv-x="619" d="M69 0Q59 0 52 7T45 24V75Q45 84 49 96T70 122L228 279Q294 331 334 367T393 434T412 495Q412 540 388 568T310 596Q275 596 251 582T214 543T195 490Q193 477 184 472T166 467H77Q68 467 62 473T56
487Q57 530 74 570T123 642T203 693T309 712Q392 712 446 684T528 608T556 500Q556 453 538 414T486 338T404 263L262 119H547Q558 119 564 113T571 95V24Q571 14 565 7T547 0H69Z" />
<glyph unicode="3" glyph-name="three" horiz-adv-x="630" d="M311 -10Q241 -10 190 7T106 51T55 111T37 176Q37 185 43 190T59 196H149Q159 196 166 192T178 176Q187 149 207 133T255 111T312 104Q372 104 407 132T443 214Q443 267 410 290T318 314H215Q204 314
197 320T190 338V380Q190 390 194 397T204 410L383 585H97Q86 585 80 592T73 609V675Q73 686 79 693T97 700H526Q537 700 544 693T551 675V615Q551 606 547 599T538 587L365 409L377 408Q438 403 485 381T559 315T586 207Q586 139 551 91T453 16T311 -10Z" />
<glyph unicode="4" glyph-name="four" horiz-adv-x="652" d="M395 0Q385 0 378 7T371 24V152H54Q43 152 37 159T30 176V244Q30 250 32 258T41 274L336 683Q349 700 373 700H482Q492 700 499 693T506 676V270H595Q607 270 613 264T620 246V176Q620 166 613 159T596
152H506V24Q506 14 499 7T482 0H395ZM169 266H374V555L169 266Z" />
<glyph unicode="5" glyph-name="five" horiz-adv-x="620" d="M306 -11Q220 -11 161 17T72 92T39 190Q38 199 44 204T60 210H153Q164 210 171 206T183 190Q193 160 211 141T254 113T306 104Q342 104 371 118T419 162T437 233Q437 270 420 297T374 339T306 355Q278
355 260 348T230 332T208 316T186 309H94Q85 309 79 315T72 331L107 673Q108 686 116 693T135 700H511Q521 700 528 693T535 676V609Q535 599 528 592T511 585H222L206 422Q224 434 254 445T337 456Q385 456 428 441T506 396T559 325T579 230Q579 157 545 103T450
19T306 -11Z" />
<glyph unicode="6" glyph-name="six" horiz-adv-x="627" d="M319 -10Q233 -10 171 22T75 110T41 235Q41 266 49 295T70 350T95 396T118 429L301 680Q305 685 313 692T335 700H428Q437 700 443 694T449 678Q449 674 448 671T444 665L304 471Q313 474 325 475T347
476Q397 475 442 457T521 406T574 331T594 237Q594 171 561 115T467 24T319 -10ZM318 105Q354 105 384 120T434 164T453 236Q453 278 434 307T385 351T318 366Q282 366 252 351T202 307T183 236Q183 193 202 164T251 120T318 105Z" />
<glyph unicode="7" glyph-name="seven" horiz-adv-x="543" d="M145 0Q136 0 130 6T124 22Q124 26 126 31L367 581H53Q42 581 36 588T29 605V675Q29 686 35 693T53 700H492Q503 700 509 693T516 675V613Q516 599 514 590T507 570L268 24Q265 17 258 9T236 0H145Z" />
<glyph unicode="8" glyph-name="eight" horiz-adv-x="656" d="M328 -10Q262 -10 210 6T123 51T69 119T50 206Q50 264 78 306T153 372Q116 395 96 431T75 515Q75 573 104 616T190 685T328 710Q409 710 465 686T550 618T579 516Q579 468 559 432T503 372Q550 350
578 307T606 205Q606 142 574 94T479 18T328 -10ZM328 94Q367 94 398 107T448 146T467 205Q467 240 449 264T399 302T328 316Q289 316 258 303T208 265T189 205Q189 171 207 146T257 108T328 94ZM328 415Q361 416 388 428T432 461T449 510Q449 539 434 560T391
594T328 606Q293 606 266 594T223 561T207 510Q207 481 222 460T265 427T328 415Z" />
<glyph unicode="9" glyph-name="nine" horiz-adv-x="617" d="M184 0Q175 0 169 6T163 22Q163 27 164 30T167 35L314 238Q295 233 273 234Q222 235 179 253T103 303T52 376T33 467Q33 512 50 555T100 634T184 689T303 710Q370 710 421 691T506 639T558 562T576
471Q576 428 562 391T528 324T487 264L311 20Q307 15 300 8T277 0H184ZM304 340Q340 340 369 355T416 399T434 467Q434 507 417 535T369 579T304 595Q268 595 239 580T192 536T174 467Q174 428 191 400T238 356T304 340Z" />
<glyph unicode=":" glyph-name="colon" horiz-adv-x="274" d="M87 350Q77 350 70 357T63 374V469Q63 480 70 487T87 494H186Q197 494 204 487T211 469V374Q211 364 204 357T186 350H87ZM87 0Q77 0 70 7T63 24V119Q63 130 70 137T87 144H186Q197 144 204 137T211
119V24Q211 14 204 7T186 0H87Z" />
<glyph unicode=";" glyph-name="semicolon" horiz-adv-x="286" d="M69 -75Q61 -75 56 -69T52 -54L78 116Q80 129 87 138T110 148H202Q210 148 215 143T220 129Q220 122 217 116L153 -50Q149 -60 142 -67T120 -75H69ZM100 350Q89 350 83 357T76 374V469Q76 480
82 487T100 494H199Q209 494 216 487T224 469V374Q224 364 217 357T199 350H100Z" />
<glyph unicode="&lt;" glyph-name="less" horiz-adv-x="504" d="M420 16Q416 16 410 19T400 24L62 255Q47 265 40 275T33 299V324Q33 338 40 348T62 368L400 599Q404 601 410 604T420 607Q428 607 434 602T440 587V511Q440 497 433 489T415 475L172 312L415 148Q426
141 433 134T440 112V36Q440 27 434 22T420 16Z" />
<glyph unicode="=" glyph-name="equal" horiz-adv-x="568" d="M90 373Q80 373 73 380T66 397V453Q66 463 73 470T90 477H477Q488 477 495 470T502 453V397Q502 387 495 380T477 373H90ZM90 123Q80 123 73 130T66 147V203Q66 213 73 220T90 227H477Q488 227 495
220T502 203V147Q502 137 495 130T477 123H90Z" />
<glyph unicode="&gt;" glyph-name="greater" horiz-adv-x="504" d="M84 16Q76 16 70 21T64 37V112Q64 127 71 134T89 148L332 312L89 475Q78 482 71 489T64 511V587Q64 597 70 602T84 607Q89 607 95 605T105 599L442 368Q457 358 464 349T471 324V300Q471 285
464 275T442 255L105 24Q101 22 95 19T84 16Z" />
<glyph unicode="?" glyph-name="question" horiz-adv-x="564" d="M238 188Q230 188 224 193T218 208Q218 216 218 224T218 240Q222 279 239 309T280 365T327 414T367 459T387 506Q390 535 376 555T337 585T285 596Q238 596 208 573T167 499Q164 487 157 482T138
476H53Q44 476 38 482T31 500Q32 540 49 577T100 645T182 692T292 710Q360 710 406 693T480 647T520 587T531 523Q529 485 514 455T477 400T432 350T392 300T368 247Q366 238 365 230T363 213Q359 201 353 195T336 188H238ZM235 0Q225 0 218 7T211 24V111Q211 122
218 129T235 136H332Q343 136 350 129T357 111V24Q357 14 350 7T332 0H235Z" />
<glyph unicode="@" glyph-name="at" horiz-adv-x="838" d="M420 -124Q305 -124 227 -86T107 22T55 186Q54 200 53 223T52 273T53 321T55 357Q61 423 87 480T157 580T265 646T412 670Q509 670 577 648T690 584T757 485T785 357Q787 334 787 309T787 263T785 229Q782
180 763 147T712 96T640 79Q607 79 584 89T546 111T524 133Q516 120 502 105T463 80T396 69Q321 69 278 123T234 273Q234 369 277 423T394 478Q434 478 457 464T495 431V446Q495 456 502 463T519 470H559Q569 470 576 463T583 446V238Q583 200 599 182T640 163Q664
163 676 175T693 206T698 238Q699 256 699 287T698 352Q693 430 664 482T574 560T412 587Q328 587 271 558T183 477T142 352Q140 335 140 304T139 242T142 191Q154 81 222 20T420 -41Q487 -41 526 -31T589 -8T627 18Q634 23 640 27T656 31H711Q721 31 728 25T735
8Q735 4 733 1T729 -7Q702 -37 661 -64T561 -107T420 -124ZM408 153Q455 153 475 184T495 273Q495 331 475 362T408 394Q363 394 342 363T321 273Q321 238 330 211T359 168T408 153Z" />
<glyph unicode="A" glyph-name="A" horiz-adv-x="693" d="M35 0Q27 0 21 6T14 21Q14 25 16 30L257 675Q260 685 268 692T292 700H401Q416 700 424 693T436 675L677 30Q678 25 678 21Q678 12 672 6T658 0H571Q557 0 551 6T542 19L495 141H198L151 19Q149 13 143
7T122 0H35ZM233 256H460L346 565L233 256Z" />
<glyph unicode="B" glyph-name="B" horiz-adv-x="686" d="M102 0Q92 0 85 7T78 24V675Q78 686 85 693T102 700H392Q473 700 524 676T599 608T624 508Q624 470 611 442T578 395T539 367Q578 349 608 307T638 207Q638 147 611 100T531 27T400 0H102ZM217 106H384Q438
106 466 135T494 207Q494 251 466 280T384 309H217V106ZM217 413H374Q427 413 453 438T480 505Q480 547 454 571T374 595H217V413Z" />
<glyph unicode="C" glyph-name="C" horiz-adv-x="684" d="M348 -10Q255 -10 191 22T92 115T54 261Q53 302 53 349T54 439Q58 523 92 584T191 677T348 710Q416 710 470 692T562 643T621 569T643 478Q644 469 638 463T622 457H527Q516 457 509 462T499 481Q483 547
444 571T347 595Q280 595 240 558T197 434Q194 352 197 266Q200 180 240 143T347 105Q405 105 444 129T499 219Q502 233 509 238T527 243H622Q631 243 637 237T643 222Q642 173 621 131T562 58T470 8T348 -10Z" />
<glyph unicode="D" glyph-name="D" horiz-adv-x="703" d="M102 0Q92 0 85 7T78 24V675Q78 686 85 693T102 700H346Q447 700 512 669T611 577T646 428Q648 384 648 350T646 273Q644 180 612 120T516 30T351 0H102ZM217 115H346Q402 115 437 131T488 182T506 276Q507
306 507 328T508 373T506 425Q504 507 465 546T341 585H217V115Z" />
<glyph unicode="E" glyph-name="E" d="M102 0Q92 0 85 7T78 24V675Q78 686 85 693T102 700H542Q553 700 560 693T567 675V609Q567 599 560 592T542 585H213V408H520Q531 408 538 402T545 384V322Q545 311 538 305T520 298H213V115H550Q561 115 568 108T575 90V24Q575
14 568 7T550 0H102Z" />
<glyph unicode="F" glyph-name="F" horiz-adv-x="601" d="M102 0Q92 0 85 7T78 24V675Q78 686 85 693T102 700H536Q547 700 554 693T561 675V605Q561 594 554 588T536 581H215V391H516Q527 391 534 384T541 366V296Q541 286 534 279T516 272H215V24Q215 14 208
7T190 0H102Z" />
<glyph unicode="G" glyph-name="G" horiz-adv-x="700" d="M350 -10Q258 -10 194 22T94 114T55 259Q54 302 54 351T55 445Q58 528 93 587T194 678T350 710Q423 710 478 691T569 641T624 575T644 510Q645 501 639 495T623 489H520Q510 489 505 493T496 505Q488 526
471 546T425 581T350 595Q282 595 242 559T198 440Q195 353 198 264Q201 179 242 142T352 105Q397 105 432 121T488 171T509 258V289H387Q377 289 370 296T363 314V367Q363 378 370 385T387 392H626Q637 392 643 385T650 367V262Q650 178 614 117T510 23T350 -10Z"
/>
<glyph unicode="H" glyph-name="H" horiz-adv-x="729" d="M102 0Q92 0 85 6T78 24V675Q78 686 85 693T102 700H193Q204 700 210 693T217 675V417H512V675Q512 686 519 693T536 700H626Q637 700 644 693T651 675V24Q651 14 644 7T626 0H536Q526 0 519 7T512 24V292H217V24Q217
14 211 7T193 0H102Z" />
<glyph unicode="I" glyph-name="I" horiz-adv-x="299" d="M102 0Q92 0 85 7T78 24V676Q78 686 85 693T102 700H196Q207 700 213 693T220 676V24Q220 14 214 7T196 0H102Z" />
<glyph unicode="J" glyph-name="J" horiz-adv-x="652" d="M304 -10Q250 -10 202 3T115 45T55 114T31 211Q31 220 37 226T52 233H147Q160 233 166 226T177 207Q182 171 200 149T245 116T307 105Q370 105 403 146T437 260V582H98Q87 582 81 589T74 606V676Q74 686
80 693T98 700H555Q566 700 573 693T580 675V256Q580 173 546 113T450 22T304 -10Z" />
<glyph unicode="K" glyph-name="K" horiz-adv-x="632" d="M102 0Q92 0 85 7T78 24V675Q78 686 85 693T102 700H190Q201 700 208 693T215 675V441L441 682Q445 687 454 693T480 700H579Q587 700 593 694T600 679Q600 672 596 667L321 365L615 34Q620 28 620 21Q620
12 614 6T599 0H496Q479 0 470 7T457 18L215 283V24Q215 14 208 7T190 0H102Z" />
<glyph unicode="L" glyph-name="L" horiz-adv-x="580" d="M102 0Q92 0 85 7T78 24V676Q78 686 85 693T102 700H195Q205 700 212 693T219 676V119H536Q547 119 554 112T561 94V24Q561 14 554 7T536 0H102Z" />
<glyph unicode="M" glyph-name="M" horiz-adv-x="811" d="M103 0Q92 0 85 7T78 24V675Q78 686 85 693T103 700H182Q196 700 203 693T212 681L405 321L600 681Q602 685 609 692T630 700H708Q719 700 726 693T733 675V24Q733 14 726 7T708 0H624Q613 0 607 7T600
24V457L460 190Q455 181 447 175T426 168H385Q371 168 364 174T351 190L211 457V24Q211 14 204 7T187 0H103Z" />
<glyph unicode="N" glyph-name="N" horiz-adv-x="707" d="M102 0Q92 0 85 7T78 24V675Q78 686 85 693T102 700H179Q193 700 199 694T208 684L496 236V675Q496 686 502 693T520 700H604Q615 700 622 693T629 675V25Q629 14 622 7T605 0H527Q513 0 507 7T498 16L211
454V24Q211 14 204 7T186 0H102Z" />
<glyph unicode="O" glyph-name="O" horiz-adv-x="695" d="M347 -10Q258 -10 194 19T94 110T55 264Q54 307 54 349T55 435Q58 526 95 587T196 679T347 710Q433 710 498 679T600 587T640 435Q642 391 642 349T640 264Q637 172 601 111T501 20T347 -10ZM347 105Q412
105 453 143T497 269Q499 313 499 350T497 431Q495 489 476 525T423 578T347 595Q305 595 272 579T220 526T198 431Q197 388 197 351T198 269Q201 182 242 144T347 105Z" />
<glyph unicode="P" glyph-name="P" horiz-adv-x="659" d="M102 0Q92 0 85 7T78 24V675Q78 686 85 693T102 700H370Q448 700 506 676T596 602T628 478Q628 403 596 355T506 282T370 258H221V24Q221 14 215 7T197 0H102ZM219 369H365Q423 369 454 396T485 478Q485
528 456 558T365 589H219V369Z" />
<glyph unicode="Q" glyph-name="Q" horiz-adv-x="695" d="M527 -65Q513 -65 505 -57T491 -42L454 8Q407 -10 347 -10Q258 -10 194 19T94 110T54 264Q53 307 53 349T54 435Q58 526 94 587T196 679T347 710Q433 710 498 679T600 587T639 435Q641 391 641 349T639
264Q634 133 567 65L637 -34Q638 -35 639 -37T640 -44Q641 -53 635 -59T620 -65H527ZM347 105Q411 105 452 143T496 269Q498 313 498 350T496 431Q495 489 475 525T423 578T347 595Q305 595 272 579T220 526T197 431Q196 388 196 351T197 269Q201 182 242 144T347
105Z" />
<glyph unicode="R" glyph-name="R" horiz-adv-x="673" d="M102 0Q92 0 85 7T78 24V675Q78 686 85 693T102 700H361Q482 700 552 644T622 481Q622 407 586 358T488 287L634 32Q637 26 637 21Q637 12 631 6T616 0H525Q508 0 499 9T485 27L356 264H217V24Q217 14
211 7T193 0H102ZM217 377H358Q419 377 449 404T479 482Q479 532 450 560T358 589H217V377Z" />
<glyph unicode="S" glyph-name="S" horiz-adv-x="642" d="M321 -10Q228 -10 166 17T71 89T36 183Q36 192 42 198T57 204H146Q159 204 165 199T177 185Q183 166 200 148T246 117T321 105Q393 105 428 129T464 194Q464 223 445 240T387 272T282 303Q207 321 157
346T81 411T55 510Q55 568 86 613T176 684T316 710Q381 710 431 693T514 647T564 586T583 522Q583 514 578 508T562 501H469Q461 501 453 505T440 520Q434 551 401 573T316 595Q262 595 229 575T196 513Q196 485 212 467T265 434T362 404Q447 385 501 360T580 297T605
199Q605 133 570 87T470 15T321 -10Z" />
<glyph unicode="T" glyph-name="T" horiz-adv-x="605" d="M256 0Q246 0 239 7T232 24V577H47Q37 577 30 584T23 601V675Q23 686 30 693T47 700H557Q568 700 575 693T582 675V601Q582 591 575 584T557 577H373V24Q373 14 366 7T348 0H256Z" />
<glyph unicode="U" glyph-name="U" horiz-adv-x="713" d="M357 -10Q270 -10 206 19T107 110T72 268V675Q72 686 79 693T96 700H187Q198 700 204 693T211 675V268Q211 186 250 147T357 107Q425 107 463 146T502 268V675Q502 686 509 693T527 700H617Q628 700 634
693T641 675V268Q641 172 607 111T509 20T357 -10Z" />
<glyph unicode="V" glyph-name="V" horiz-adv-x="674" d="M282 0Q266 0 257 8T244 28L30 670Q28 675 28 679Q28 688 34 694T49 700H137Q151 700 158 693T168 678L337 163L506 678Q508 685 515 692T537 700H625Q633 700 639 694T646 679Q646 675 644 670L430 28Q426
16 417 8T392 0H282Z" />
<glyph unicode="W" glyph-name="W" horiz-adv-x="816" d="M193 0Q178 0 170 8T158 30L39 671Q39 674 39 676T38 679Q38 688 44 694T59 700H147Q172 700 175 680L258 227L348 520Q351 528 358 536T381 545H435Q451 545 458 537T467 520L558 228L641 680Q644 700
669 700H757Q765 700 771 694T777 679Q777 678 777 676T776 671L657 30Q655 17 646 9T622 0H555Q540 0 532 8T520 25L408 359L296 25Q292 16 284 8T260 0H193Z" />
<glyph unicode="X" glyph-name="X" horiz-adv-x="662" d="M39 0Q30 0 24 6T18 21Q18 24 19 27T21 33L245 357L35 667Q32 673 32 679Q32 688 38 694T53 700H155Q167 700 174 694T186 681L333 465L481 681Q485 688 492 694T512 700H609Q618 700 624 694T630 679Q630
673 626 667L417 357L641 33Q643 30 644 27T645 21Q645 12 639 6T624 0H518Q506 0 499 6T488 18L328 244L171 18Q167 12 160 6T140 0H39Z" />
<glyph unicode="Y" glyph-name="Y" horiz-adv-x="664" d="M286 0Q276 0 269 7T262 24V250L26 668Q25 670 24 673T23 679Q23 688 29 694T43 700H132Q144 700 151 694T162 681L332 390L501 681Q505 688 512 694T532 700H620Q629 700 635 694T641 679Q641 676 641
673T638 668L402 250V24Q402 14 395 7T377 0H286Z" />
<glyph unicode="Z" glyph-name="Z" horiz-adv-x="625" d="M63 0Q53 0 46 7T39 25V95Q39 110 45 119T54 132L402 582H73Q62 582 56 589T49 606V675Q49 686 55 693T73 700H551Q562 700 569 693T576 675V606Q576 594 572 586T563 571L222 119H562Q573 119 580 112T587
94V24Q587 14 580 7T562 0H63Z" />
<glyph unicode="[" glyph-name="bracketleft" horiz-adv-x="354" d="M91 -159Q81 -159 74 -152T67 -135V752Q67 762 74 769T91 776H304Q314 776 321 769T328 752V691Q328 681 321 674T304 667H189V-43H304Q314 -43 321 -50T328 -67V-135Q328 -145 321 -152T304 -159H91Z" />
<glyph unicode="\" glyph-name="backslash" horiz-adv-x="507" d="M399 -84Q385 -84 378 -77T368 -63L26 754Q24 761 24 765Q24 774 30 780T44 786H109Q123 786 130 779T140 765L480 -52Q483 -59 483 -63Q483 -72 477 -78T462 -84H399Z" />
<glyph unicode="]" glyph-name="bracketright" horiz-adv-x="354" d="M50 -159Q40 -159 33 -152T26 -135V-67Q26 -57 33 -50T50 -43H165V667H50Q40 667 33 674T26 691V752Q26 762 33 769T50 776H263Q274 776 280 769T287 752V-135Q287 -145 281 -152T263 -159H50Z" />
<glyph unicode="^" glyph-name="asciicircum" horiz-adv-x="448" d="M71 583Q56 583 56 596Q56 604 66 613L163 713Q173 724 180 726T197 729H251Q261 729 268 727T285 713L383 613Q392 604 392 596Q392 583 377 583H340Q332 583 324 584T309 590L224 643L139
590Q133 586 125 585T108 583H71Z" />
<glyph unicode="_" glyph-name="underscore" horiz-adv-x="742" d="M77 -56Q67 -56 60 -50T53 -32V34Q53 44 60 51T77 58H664Q675 58 681 51T688 34V-32Q688 -43 682 -49T664 -56H77Z" />
<glyph unicode="`" glyph-name="grave" horiz-adv-x="367" d="M228 595Q216 595 209 598T193 608L68 710Q63 715 63 722Q63 741 82 741H182Q195 741 202 738T219 723L301 624Q306 619 306 611Q306 595 290 595H228Z" />
<glyph unicode="a" glyph-name="a" horiz-adv-x="571" d="M217 -10Q165 -10 123 10T57 65T32 143Q32 213 89 254T238 310L375 330V351Q375 393 354 416T282 439Q246 439 224 425T190 386Q182 373 167 373H88Q77 373 72 379T66 395Q67 411 79 434T117 478T184 515T283
530Q346 530 389 515T459 473T497 412T509 338V24Q509 14 502 7T485 0H404Q393 0 387 7T380 24V63Q367 45 345 28T292 1T217 -10ZM251 85Q286 85 314 100T359 146T376 226V247L276 231Q217 222 188 202T159 153Q159 131 172 116T207 93T251 85Z" />
<glyph unicode="b" glyph-name="b" horiz-adv-x="613" d="M354 -10Q296 -10 258 10T194 61V24Q194 14 188 7T170 0H91Q81 0 74 7T67 24V686Q67 696 74 703T91 710H176Q187 710 193 703T200 686V464Q225 493 262 511T354 530Q407 530 446 512T511 462T552 386T567
293Q568 275 568 261T567 228Q565 176 551 133T511 57T446 8T354 -10ZM317 97Q360 97 384 115T419 164T432 230Q433 260 432 290Q430 326 419 356T384 404T317 423Q277 423 252 405T214 360T200 302Q199 284 199 264T200 225Q202 194 213 165T250 116T317 97Z"
/>
<glyph unicode="c" glyph-name="c" horiz-adv-x="571" d="M291 -10Q219 -10 165 17T80 95T46 220Q45 235 45 259T46 300Q49 373 79 424T164 503T291 530Q355 530 400 513T474 468T517 411T533 357Q534 346 527 340T509 333H421Q411 333 406 338T395 353Q380 393
356 409T293 426Q243 426 214 395T182 295Q180 257 182 225Q184 156 213 125T293 94Q332 94 356 110T395 167Q400 177 405 182T421 187H509Q519 187 526 181T533 163Q532 145 524 123T497 77T450 34T383 2T291 -10Z" />
<glyph unicode="d" glyph-name="d" horiz-adv-x="613" d="M259 -10Q207 -10 168 7T102 57T62 132T46 228Q45 246 45 260T46 293Q48 343 61 386T101 461T167 512T259 530Q313 530 350 512T413 464V686Q413 696 419 703T437 710H522Q532 710 539 703T546 686V24Q546
14 539 7T522 0H443Q432 0 426 7T419 24V61Q394 30 356 10T259 -10ZM296 97Q338 97 363 116T400 164T413 225Q414 243 414 263T413 302Q412 332 399 359T361 405T296 423Q254 423 230 405T194 356T181 290Q180 260 181 230Q183 194 194 164T229 116T296 97Z" />
<glyph unicode="e" glyph-name="e" horiz-adv-x="577" d="M290 -10Q179 -10 114 54T44 236Q43 246 43 261T44 286Q48 362 78 416T163 500T290 530Q371 530 426 497T509 404T537 266V245Q537 235 530 228T512 221H180Q180 221 180 218T180 213Q181 178 193 149T230
101T289 83Q317 83 336 91T367 111T384 129Q393 141 398 143T415 146H501Q511 146 517 140T523 125Q522 109 507 86T462 41T390 5T290 -10ZM180 305H401V308Q401 347 388 376T350 422T290 439Q255 439 230 423T193 377T180 308V305Z" />
<glyph unicode="f" glyph-name="f" horiz-adv-x="414" d="M146 0Q136 0 129 7T122 24V414H41Q31 414 24 421T17 439V496Q17 506 24 513T41 520H122V561Q122 621 144 660T209 720T318 740H386Q397 740 403 733T410 716V659Q410 648 404 641T386 634H322Q282 634
267 614T252 556V520H376Q387 520 393 513T400 496V439Q400 428 394 421T376 414H252V24Q252 14 245 7T228 0H146Z" />
<glyph unicode="g" glyph-name="g" horiz-adv-x="616" d="M301 -220Q228 -220 181 -201T107 -155T69 -102T56 -60Q55 -50 62 -43T80 -35H167Q177 -35 183 -39T193 -56Q199 -69 209 -84T239 -109T296 -120Q334 -120 360 -109T399 -72T413 0V68Q389 39 352 21T259
3Q206 3 167 20T101 69T62 144T46 239Q45 266 46 293Q48 343 61 386T101 461T166 512T259 530Q316 530 355 509T419 455V495Q419 506 426 513T443 520H524Q534 520 541 513T548 495L549 13Q549 -59 522 -111T441 -191T301 -220ZM296 109Q337 109 362 127T399 174T413
233Q414 246 414 266T413 298Q411 329 399 357T362 404T296 423Q255 423 230 405T195 356T182 290Q180 266 182 241Q184 206 194 176T230 127T296 109Z" />
<glyph unicode="h" glyph-name="h" horiz-adv-x="629" d="M91 0Q81 0 74 7T67 24V686Q67 696 74 703T91 710H180Q191 710 197 703T204 686V458Q231 490 270 510T366 530Q427 530 472 503T543 425T568 305V24Q568 14 561 7T544 0H454Q444 0 437 7T430 24V299Q430
357 402 390T319 423Q267 423 236 390T204 299V24Q204 14 198 7T180 0H91Z" />
<glyph unicode="i" glyph-name="i" horiz-adv-x="264" d="M90 0Q80 0 73 7T66 24V496Q66 506 73 513T90 520H173Q184 520 190 513T197 496V24Q197 14 191 7T173 0H90ZM86 606Q76 606 69 613T62 630V702Q62 712 69 719T86 726H177Q188 726 195 719T202 702V630Q202
620 195 613T177 606H86Z" />
<glyph unicode="j" glyph-name="j" horiz-adv-x="279" d="M-20 -190Q-30 -190 -37 -183T-44 -166V-108Q-44 -98 -37 -91T-20 -84H6Q37 -84 52 -73T72 -43T77 1V496Q77 506 84 513T101 520H188Q198 520 205 513T212 496V-1Q212 -60 191 -102T127 -167T18 -190H-20ZM97
606Q86 606 80 613T73 630V702Q73 712 79 719T97 726H191Q202 726 209 719T216 702V630Q216 620 209 613T191 606H97Z" />
<glyph unicode="k" glyph-name="k" horiz-adv-x="550" d="M91 0Q81 0 74 7T67 24V686Q67 696 74 703T91 710H172Q183 710 189 703T196 686V344L364 503Q374 511 380 515T401 520H494Q504 520 510 514T516 498Q516 494 514 489T506 480L300 287L531 39Q541 29 541
22Q541 12 535 6T519 0H424Q409 0 403 4T387 17L196 218V24Q196 14 190 7T172 0H91Z" />
<glyph unicode="l" glyph-name="l" horiz-adv-x="265" d="M91 0Q81 0 74 7T67 24V686Q67 696 74 703T91 710H174Q184 710 191 703T198 686V24Q198 14 191 7T174 0H91Z" />
<glyph unicode="m" glyph-name="m" horiz-adv-x="902" d="M90 0Q80 0 73 7T66 24V496Q66 506 73 513T90 520H168Q178 520 185 513T192 496V462Q213 490 248 509T333 530Q447 532 492 441Q515 481 558 505T655 530Q707 530 749 506T816 434T841 311V24Q841 14 834
7T817 0H735Q725 0 718 7T711 24V303Q711 348 698 374T663 412T614 423Q592 423 570 412T534 375T520 303V24Q520 14 513 7T496 0H414Q404 0 397 7T390 24V303Q390 348 376 374T340 412T293 423Q270 423 248 412T212 374T198 303V24Q198 14 191 7T174 0H90Z" />
<glyph unicode="n" glyph-name="n" horiz-adv-x="624" d="M90 0Q80 0 73 7T66 24V496Q66 506 73 513T90 520H172Q182 520 189 513T196 496V455Q222 487 262 508T363 530Q424 530 469 503T538 425T563 305V24Q563 14 556 7T539 0H451Q441 0 434 7T427 24V299Q427
357 399 390T316 423Q264 423 233 390T202 299V24Q202 14 195 7T178 0H90Z" />
<glyph unicode="o" glyph-name="o" horiz-adv-x="592" d="M296 -10Q216 -10 162 18T79 97T46 216Q45 234 45 260T46 304Q50 373 79 423T163 502T296 530Q374 530 428 502T512 424T546 304Q547 286 547 260T546 216Q542 148 514 97T431 18T296 -10ZM296 89Q349
89 378 122T410 221Q411 236 411 260T410 299Q407 364 378 397T296 431Q243 431 214 398T182 299Q181 284 181 260T182 221Q185 156 214 123T296 89Z" />
<glyph unicode="p" glyph-name="p" horiz-adv-x="614" d="M91 -190Q81 -190 74 -183T67 -166V496Q67 506 74 513T91 520H170Q181 520 187 513T194 496V456Q218 488 257 509T354 530Q407 530 446 513T511 465T551 390T567 295Q568 278 568 260T567 224Q566 174
552 132T512 58T446 8T354 -10Q300 -10 262 9T200 61V-166Q200 -176 194 -183T176 -190H91ZM317 97Q360 97 384 115T419 164T432 230Q433 260 432 290Q430 326 419 356T384 404T317 423Q276 423 251 404T214 356T200 295Q199 277 199 257T200 218Q201 188 214 161T252
115T317 97Z" />
<glyph unicode="q" glyph-name="q" horiz-adv-x="614" d="M437 -190Q427 -190 420 -183T413 -166V61Q389 29 351 10T259 -10Q208 -10 169 8T103 57T62 131T46 224Q45 242 45 260T46 295Q49 347 62 390T102 464T168 513T259 530Q317 530 356 509T419 456V496Q419
506 426 513T443 520H523Q533 520 540 513T547 496V-166Q547 -176 540 -183T523 -190H437ZM297 97Q337 97 362 115T399 160T413 218Q415 237 415 257T413 295Q412 326 400 355T363 404T297 423Q255 423 230 405T195 356T182 290Q180 260 182 230Q184 194 194 164T230
116T297 97Z" />
<glyph unicode="r" glyph-name="r" horiz-adv-x="417" d="M90 0Q80 0 73 7T66 24V495Q66 506 73 513T90 520H171Q181 520 188 513T196 495V454Q219 486 255 503T340 520H381Q392 520 398 513T405 496V424Q405 414 399 407T381 400H303Q255 400 229 374T202 299V24Q202
14 195 7T177 0H90Z" />
<glyph unicode="s" glyph-name="s" horiz-adv-x="532" d="M263 -10Q203 -10 161 4T91 39T51 81T37 116Q36 127 43 133T60 140H139Q143 140 146 139T154 133Q167 122 181 110T216 90T266 81Q305 81 331 96T358 141Q358 162 347 175T304 198T216 221Q160 234 123
254T68 304T50 374Q50 413 73 448T143 507T259 530Q313 530 353 517T419 483T460 443T475 407Q476 396 469 390T453 383H379Q374 383 370 385T362 390Q351 400 338 411T307 431T258 439Q220 439 200 423T180 381Q180 364 189 352T228 328T316 305Q383 293 422 270T478
216T495 148Q495 103 469 67T391 11T263 -10Z" />
<glyph unicode="t" glyph-name="t" horiz-adv-x="429" d="M301 0Q241 0 200 21T139 83T119 187V414H40Q30 414 23 421T16 439V496Q16 506 23 513T40 520H119V686Q119 696 125 703T143 710H224Q234 710 241 703T248 686V520H373Q383 520 390 513T397 496V439Q397
428 390 421T373 414H248V197Q248 156 262 133T313 110H382Q392 110 399 103T406 86V24Q406 14 399 7T382 0H301Z" />
<glyph unicode="u" glyph-name="u" horiz-adv-x="621" d="M259 -10Q198 -10 154 17T85 95T61 215V496Q61 506 68 513T85 520H173Q184 520 190 513T197 496V221Q197 97 306 97Q358 97 388 130T419 221V496Q419 506 426 513T443 520H531Q541 520 548 513T555 496V24Q555
14 548 7T531 0H450Q439 0 433 7T426 24V65Q399 30 359 10T259 -10Z" />
<glyph unicode="v" glyph-name="v" horiz-adv-x="574" d="M250 0Q234 0 227 7T214 25L27 489Q25 494 25 498Q25 507 31 513T47 520H128Q140 520 146 514T154 501L287 150L420 501Q422 507 428 513T446 520H528Q536 520 542 514T549 498Q549 494 548 489L360 25Q356
15 348 8T324 0H250Z" />
<glyph unicode="w" glyph-name="w" horiz-adv-x="820" d="M208 0Q194 0 187 7T175 25L32 489Q31 494 31 498Q31 507 37 513T52 520H126Q138 520 145 514T153 501L251 170L355 498Q357 505 364 512T385 520H435Q449 520 456 513T465 498L569 170L667 501Q668 507
674 513T693 520H767Q776 520 782 514T789 498Q789 494 787 489L644 25Q641 14 634 7T612 0H547Q534 0 526 7T514 25L410 341L306 25Q302 14 295 7T272 0H208Z" />
<glyph unicode="x" glyph-name="x" horiz-adv-x="564" d="M44 0Q35 0 29 6T22 22Q22 25 23 29T29 39L199 267L41 481Q38 486 37 490T35 498Q35 507 41 513T57 520H144Q156 520 162 514T171 503L284 353L397 503Q401 508 406 514T424 520H507Q516 520 522 514T529
499Q529 494 528 490T523 481L363 265L534 39Q538 33 539 29T541 22Q541 13 535 7T519 0H428Q417 0 411 5T401 16L281 175L159 16Q155 11 150 6T132 0H44Z" />
<glyph unicode="y" glyph-name="y" horiz-adv-x="574" d="M160 -190Q152 -190 146 -184T140 -170Q140 -166 140 -163T144 -154L222 31L30 484Q26 494 26 498Q27 507 33 513T48 520H129Q141 520 147 514T156 501L289 174L426 501Q429 509 435 514T453 520H533Q541
520 547 514T554 500Q554 494 550 484L267 -171Q263 -179 257 -184T239 -190H160Z" />
<glyph unicode="z" glyph-name="z" horiz-adv-x="531" d="M64 0Q53 0 47 7T40 24V81Q40 90 44 98T54 113L310 416H72Q62 416 55 422T48 440V496Q48 506 55 513T72 520H451Q462 520 468 513T475 496V435Q475 426 471 419T461 405L211 104H472Q482 104 489 98T496
80V24Q496 14 489 7T472 0H64Z" />
<glyph unicode="{" glyph-name="braceleft" horiz-adv-x="397" d="M344 -159Q286 -158 242 -140T169 -85T126 6T111 131Q111 178 98 206T55 251L46 256Q20 271 20 295V323Q20 347 46 362L56 367Q84 384 97 412T111 487Q111 558 125 612T169 702T241 757T344 776H349Q359
776 365 770T371 754V690Q371 680 365 674T351 668H346Q302 666 277 646T242 583T232 470Q232 409 213 368T158 309Q181 298 197 275T223 219T232 148Q232 79 242 36T276 -27T346 -50L351 -51Q359 -51 365 -57T371 -73V-137Q371 -146 365 -152T349 -159H344Z" />
<glyph unicode="|" glyph-name="bar" horiz-adv-x="249" d="M92 -208Q82 -208 75 -201T68 -184V872Q68 882 75 889T92 896H157Q167 896 174 889T181 872V-184Q181 -194 174 -201T157 -208H92Z" />
<glyph unicode="}" glyph-name="braceright" horiz-adv-x="397" d="M52 776Q111 776 155 758T228 703T271 612T286 486Q286 440 299 412T341 366L351 362Q377 347 377 323V294Q377 270 351 255L341 250Q312 234 299 206T286 130Q286 59 272 6T228 -84T156 -139T53
-159H47Q38 -159 32 -153T25 -137V-73Q25 -63 31 -57T46 -51H50Q96 -48 120 -28T155 35T165 147Q165 209 184 250T239 308Q216 321 200 343T174 398T165 469Q165 539 155 582T121 645T51 668H46Q37 668 31 674T25 690V754Q25 764 31 770T47 776H52Z" />
<glyph unicode="~" glyph-name="asciitilde" horiz-adv-x="557" d="M85 227Q75 227 71 233T66 252V310Q66 327 81 341T121 365T176 375Q210 375 235 369T283 356T329 343T383 337Q411 337 429 348T457 366Q461 369 465 370T473 372Q484 372 488 366T492 347V290Q492
273 477 258T438 234T382 224Q349 224 324 230T277 243T231 256T175 262Q147 262 129 251T101 233Q97 231 94 230T85 227Z" />
<glyph unicode="&#xa0;" glyph-name="uni00A0" horiz-adv-x="229" />
<glyph unicode="&#xa1;" glyph-name="exclamdown" horiz-adv-x="260" d="M171 324Q181 324 188 318T195 300V-158Q195 -168 188 -175T171 -182H90Q80 -182 73 -175T66 -158V300Q66 311 73 317T90 324H171ZM178 518Q188 518 195 512T202 494V401Q202 391 195 384T178
376H84Q74 376 67 383T60 401V494Q60 505 67 511T84 518H178Z" />
<glyph unicode="&#xa2;" glyph-name="cent" horiz-adv-x="578" d="M253 -100Q243 -100 236 -93T229 -76V-4Q148 11 100 68T48 220Q47 235 47 259T48 300Q51 393 99 451T229 523V586Q229 596 236 603T253 610H323Q333 610 340 603T347 586V525Q398 516 433 496T491
450T524 399T535 357Q536 346 529 340T511 333H423Q413 333 408 338T397 353Q382 393 355 409T290 426Q245 426 216 395T184 295Q182 257 184 225Q186 156 215 125T290 94Q329 94 355 110T397 167Q402 177 407 182T423 187H511Q521 187 528 181T535 163Q534 147
524 122T493 71T435 25T347 -5V-76Q347 -86 340 -93T323 -100H253Z" />
<glyph unicode="&#xa3;" glyph-name="sterling" horiz-adv-x="699" d="M479 -7Q444 -7 416 2T365 24T320 50T277 72T233 81Q197 81 182 64T160 16Q158 12 155 6T141 0H65Q57 0 52 6T46 19Q48 85 79 126T159 184Q159 209 155 234T147 289H70Q60 289 53 295T46 313V368Q46
378 53 385T70 392H126Q125 406 125 421T124 452Q124 530 152 588T238 678T381 711Q462 711 521 682T612 601T645 483Q645 474 639 468T624 461H530Q519 461 512 467T500 485Q488 539 460 567T380 596Q323 596 295 557T267 451Q267 435 267 421T270 392H441Q451
392 458 385T465 368V313Q465 302 458 296T441 289H277Q280 262 283 236T286 181Q316 175 338 164T378 139T417 116T462 107Q500 107 517 127T544 177Q545 182 550 187T562 192H630Q639 192 644 187T649 173Q648 115 624 75T562 14T479 -7Z" />
<glyph unicode="&#xa4;" glyph-name="currency" horiz-adv-x="601" d="M103 65L65 102Q58 110 58 119T65 136L110 180Q74 232 74 300Q74 367 110 420L65 464Q58 471 58 480T65 498L103 535Q110 543 119 543T136 535L180 491Q206 508 236 517T300 526Q333 526 364
517T420 491L464 535Q472 543 481 543T498 535L536 498Q543 490 543 481T536 464L491 420Q508 394 517 364T527 300Q527 266 518 236T491 180L536 136Q543 129 543 120T536 102L498 65Q491 58 482 58T464 65L420 109Q367 74 300 74Q233 74 180 109L136 65Q129 58
120 58T103 65ZM300 174Q335 174 364 191T409 237T426 300Q426 335 410 363T364 409T300 426Q265 426 237 409T192 364T175 300Q175 266 191 237T236 191T300 174Z" />
<glyph unicode="&#xa5;" glyph-name="yen" horiz-adv-x="653" d="M281 0Q270 0 264 7T257 24V264L34 668Q33 670 32 673T31 679Q31 688 37 694T52 700H141Q153 700 161 694T172 681L326 407L481 681Q485 688 492 694T512 700H601Q610 700 616 694T622 679Q622
676 621 673T619 668L396 264V24Q396 14 389 7T371 0H281ZM121 86Q111 86 104 93T97 110V167Q97 178 104 184T121 191H532Q542 191 549 185T556 167V110Q556 100 549 93T532 86H121ZM121 227Q111 227 104 233T97 251V307Q97 318 104 324T121 331H532Q542 331 549
325T556 307V251Q556 240 549 234T532 227H121Z" />
<glyph unicode="&#xa6;" glyph-name="brokenbar" horiz-adv-x="254" d="M95 475Q84 475 78 482T71 499V805Q71 815 77 822T95 829H159Q170 829 176 822T183 805V499Q183 489 177 482T159 475H95ZM95 0Q84 0 78 7T71 24V330Q71 340 77 347T95 354H159Q170 354 176
347T183 330V24Q183 14 177 7T159 0H95Z" />
<glyph unicode="&#xa7;" glyph-name="section" horiz-adv-x="587" d="M286 -140Q231 -140 190 -127T122 -91T80 -43T65 3Q64 13 70 19T86 25H164Q173 25 179 21T190 7Q196 -5 205 -17T233 -36T285 -44Q327 -44 347 -23T367 29Q367 51 358 65T322 92T241 117Q167
138 123 164T58 227T38 316Q38 358 58 391T112 449Q100 466 95 486T90 531Q90 577 113 618T184 684T301 710Q375 710 423 687T496 630T522 567Q523 558 517 552T501 546H423Q413 546 408 550T396 564Q391 576 381 587T353 606T302 614Q260 614 240 593T220 542Q220
519 229 505T266 479T346 453Q420 432 464 406T529 343T549 254Q549 212 528 179T475 121Q487 104 492 84T497 39Q497 -7 474 -48T403 -114T286 -140ZM379 186Q403 197 415 212T428 250Q428 272 419 289T383 320T306 350Q274 360 251 368T208 384Q183 374 171 358T159
320Q159 299 168 282T204 250T282 220Q332 204 379 186Z" />
<glyph unicode="&#xa8;" glyph-name="dieresis" horiz-adv-x="430" d="M272 614Q262 614 256 620T250 636V709Q250 719 256 725T272 732H345Q355 732 361 726T368 709V636Q368 626 362 620T345 614H272ZM84 614Q74 614 68 620T62 636V709Q62 719 68 725T84 732H157Q167
732 173 726T180 709V636Q180 626 174 620T157 614H84Z" />
<glyph unicode="&#xa9;" glyph-name="copyright" horiz-adv-x="817" d="M408 -10Q333 -10 268 18T154 95T76 210T48 350Q48 425 76 490T153 604T268 682T408 710Q483 710 548 682T662 605T740 490T768 350Q768 275 740 210T663 96T548 18T408 -10ZM408 61Q468
61 519 84T609 146T670 238T692 350Q692 409 670 461T609 553T519 616T408 639Q349 639 298 616T208 554T147 462T125 350Q125 291 147 239T207 147T297 84T408 61ZM408 158Q357 158 320 179T264 235T241 315Q241 323 241 337T240 365T241 387Q244 432 263 467T320
523T408 544Q466 544 503 526T558 481T576 428Q577 418 571 412T554 406H505Q495 406 490 412T481 426Q473 446 457 456T408 467Q379 467 363 454T341 422T333 385Q333 377 333 364T332 338T333 317Q334 299 340 280T363 248T408 235Q440 235 456 245T481 276Q484
283 489 289T505 296H554Q564 296 570 290T576 274Q576 249 558 222T503 177T408 158Z" />
<glyph unicode="&#xaa;" glyph-name="ordfeminine" horiz-adv-x="361" d="M139 429Q96 429 70 452T43 507Q43 546 73 569T156 600L216 609Q216 615 214 622T205 635T180 641Q163 641 155 637T141 628T124 623H78Q71 623 66 626T61 638Q62 649 76 665T117 693T182
705Q240 705 271 676T302 596V453Q302 445 297 440T283 434H237Q229 434 224 439T218 453V463Q209 448 187 439T139 429ZM159 492Q189 492 202 509T216 553L176 546Q146 541 137 532T127 511Q127 503 136 498T159 492Z" />
<glyph unicode="&#xab;" glyph-name="guillemotleft" horiz-adv-x="615" d="M538 76Q534 76 529 78T518 85L318 279Q310 287 307 294T302 311V347Q303 356 306 363T318 379L518 573Q523 578 528 580T538 582Q547 582 552 576T558 561V494Q558 480 554 472T540
454L412 329L540 204Q550 194 554 186T558 164V97Q558 88 553 82T538 76ZM272 76Q268 76 263 78T252 85L52 279Q44 287 41 294T36 311V347Q37 356 40 363T52 379L252 573Q258 578 263 580T272 582Q281 582 287 576T293 561V494Q293 480 289 472T275 454L146 329L275
204Q285 194 289 186T293 164V97Q293 88 287 82T272 76Z" />
<glyph unicode="&#xac;" glyph-name="logicalnot" horiz-adv-x="574" d="M426 147Q415 147 409 153T402 171V271H86Q76 271 69 278T62 295V350Q62 361 69 367T86 374H483Q494 374 500 368T507 350V171Q507 160 501 154T483 147H426Z" />
<glyph unicode="&#xad;" glyph-name="uni00AD" horiz-adv-x="600" d="M87 243Q76 243 70 250T63 267V333Q63 343 69 350T87 357H394Q404 357 411 350T418 333V267Q418 257 411 250T394 243H87Z" />
<glyph unicode="&#xae;" glyph-name="registered" horiz-adv-x="817" d="M408 -10Q333 -10 268 18T154 95T76 210T48 350Q48 425 76 490T153 604T268 682T408 710Q483 710 548 682T662 605T740 490T768 350Q768 275 740 210T663 96T548 18T408 -10ZM408 61Q468
61 519 84T609 146T670 238T692 350Q692 409 670 461T609 553T519 616T408 639Q349 639 298 616T208 554T147 462T125 350Q125 291 147 239T207 147T297 84T408 61ZM288 168Q266 168 266 190V512Q266 534 288 534H423Q461 534 494 523T548 485T569 414Q569 374
551 349T504 311L563 204Q565 202 566 199T567 190Q567 182 562 175T545 168H502Q492 168 485 173T473 187L417 294H356V190Q356 168 334 168H288ZM356 369H422Q454 369 466 382T478 414Q478 433 466 446T422 460H356V369Z" />
<glyph unicode="&#xaf;" glyph-name="overscore" horiz-adv-x="420" d="M84 611Q74 611 68 617T62 633V684Q62 694 68 700T84 706H335Q345 706 351 700T358 684V633Q358 623 352 617T335 611H84Z" />
<glyph unicode="&#xb0;" glyph-name="degree" horiz-adv-x="399" d="M200 399Q156 399 120 419T61 475T39 555Q39 599 61 634T119 689T200 710Q244 710 280 690T338 635T360 555Q360 511 338 476T280 420T200 399ZM200 479Q234 479 255 500T276 555Q276 589 255
610T200 631Q166 631 145 610T124 555Q124 521 145 500T200 479Z" />
<glyph unicode="&#xb1;" glyph-name="plusminus" horiz-adv-x="564" d="M253 190Q243 190 236 197T229 214V365H81Q70 365 64 372T57 389V442Q57 452 63 459T81 466H229V613Q229 623 236 630T253 637H312Q322 637 329 630T336 613V466H483Q494 466 500 459T507
442V389Q507 379 501 372T483 365H336V214Q336 204 329 197T312 190H253ZM91 0Q80 0 74 7T67 24V77Q67 87 73 94T91 101H473Q484 101 490 94T497 77V24Q497 14 491 7T473 0H91Z" />
<glyph unicode="&#xb2;" glyph-name="uni00B2" horiz-adv-x="349" d="M50 350Q28 350 28 372V400Q28 408 33 415T52 433Q111 477 147 503T201 549T218 591Q218 609 206 620T172 632Q153 632 143 626T129 612T122 599Q116 588 111 585T98 581H54Q35 581 36 600Q38
629 56 652T105 690T172 705Q234 705 270 673T306 594Q306 560 291 535T244 484T166 425H298Q320 425 320 403V372Q320 350 298 350H50Z" />
<glyph unicode="&#xb3;" glyph-name="uni00B3" horiz-adv-x="348" d="M169 345Q118 345 87 359T42 393T25 432Q24 442 31 446T42 451H74Q82 451 89 449T103 443Q111 438 116 433T133 423T166 419Q193 419 209 429T225 457Q225 479 210 486T170 494H126Q117 494
111 500T105 515V537Q105 544 108 549T116 559L185 623H63Q41 623 41 645V678Q41 700 63 700H277Q299 700 299 678V649Q299 639 297 632T285 616L217 559Q266 554 291 527T316 455Q316 405 277 375T169 345Z" />
<glyph unicode="&#xb4;" glyph-name="acute" horiz-adv-x="367" d="M78 595Q62 595 62 611Q62 619 67 624L148 723Q158 734 165 737T185 741H285Q304 741 304 722Q304 715 299 710L175 608Q167 601 160 598T139 595H78Z" />
<glyph unicode="&#xb5;" glyph-name="uni00B5" horiz-adv-x="632" d="M91 -200Q80 -200 74 -193T67 -176V496Q67 506 73 513T91 520H180Q191 520 197 513T204 496V221Q204 182 220 155T263 112T317 97Q346 97 372 112T414 154T430 221V496Q430 506 437 513T454
520H542Q552 520 559 513T566 496V24Q566 14 559 7T542 0H460Q450 0 443 7T436 24V65Q418 39 392 22T323 1Q283 -1 255 10T204 41V-176Q204 -186 198 -193T180 -200H91Z" />
<glyph unicode="&#xb6;" glyph-name="paragraph" horiz-adv-x="580" d="M238 -100Q227 -100 220 -93T213 -76V330Q162 330 120 355T53 422T28 515Q28 566 53 608T120 675T213 700H483Q493 700 500 693T507 676V-76Q507 -86 500 -93T483 -100H424Q413 -100 407
-93T400 -76V605H321V-76Q321 -86 314 -93T297 -100H238Z" />
<glyph unicode="&#xb7;" glyph-name="middot" horiz-adv-x="330" d="M165 192Q134 192 107 207T65 250T49 308Q49 341 64 367T107 408T165 424Q197 424 223 409T265 367T281 308Q281 277 266 250T224 208T165 192Z" />
<glyph unicode="&#xb8;" glyph-name="cedilla" horiz-adv-x="305" d="M147 -220Q119 -219 98 -210T67 -189T67 -169L84 -154Q93 -146 99 -149T116 -159T147 -166Q162 -166 173 -157T184 -132Q184 -118 174 -109T147 -100Q134 -100 124 -103T105 -108T89 -102L71
-84Q65 -77 67 -70T73 -53L108 27H170L130 -53Q136 -50 146 -48T165 -46Q200 -46 221 -70T243 -131Q243 -169 218 -195T147 -220Z" />
<glyph unicode="&#xb9;" glyph-name="uni00B9" horiz-adv-x="276" d="M146 350Q124 350 124 372V595L69 553Q62 548 53 549T38 558L18 585Q12 593 13 601T22 616L125 693Q135 700 148 700H192Q214 700 214 678V372Q214 350 192 350H146Z" />
<glyph unicode="&#xba;" glyph-name="ordmasculine" horiz-adv-x="357" d="M179 429Q118 429 84 457T47 540Q46 548 46 567T47 594Q50 649 86 677T179 705Q235 705 271 677T310 594Q311 587 311 568T310 540Q307 486 274 458T179 429ZM179 497Q200 497 211 508T223
545Q224 553 224 567T223 589Q222 612 211 624T179 637Q157 637 147 625T134 589Q133 582 133 568T134 545Q136 520 146 509T179 497Z" />
<glyph unicode="&#xbb;" glyph-name="guillemotright" horiz-adv-x="615" d="M343 76Q334 76 328 82T322 97V164Q322 178 326 186T340 204L468 329L340 454Q330 464 326 472T322 494V561Q322 570 328 576T343 582Q347 582 352 580T363 573L563 379Q571 371 574
364T578 347V311Q578 302 575 295T563 279L363 85Q358 80 353 78T343 76ZM77 76Q68 76 62 82T56 97V164Q56 178 60 186T74 204L203 329L74 454Q64 464 60 472T56 494V561Q56 570 62 576T77 582Q81 582 86 580T97 573L297 379Q305 371 308 364T313 347V311Q312 302
309 295T297 279L97 85Q92 80 87 78T77 76Z" />
<glyph unicode="&#xbc;" glyph-name="onequarter" horiz-adv-x="811" d="M146 350Q124 350 124 372V595L69 553Q62 548 53 549T38 558L18 585Q12 593 13 601T22 616L125 693Q135 700 148 700H192Q214 700 214 678V372Q214 350 192 350H146ZM97 0Q76 0 76 20Q76
26 80 31L573 681Q580 690 587 695T607 700H648Q669 700 669 680Q669 674 665 669L172 19Q165 10 159 5T138 0H97ZM666 0Q644 0 644 22V63H496Q474 63 474 85V121Q474 123 475 131T486 151L619 332Q627 343 634 346T649 350H710Q732 350 732 328V142H767Q789 142
789 120V85Q789 63 767 63H732V22Q732 0 710 0H666ZM569 140H646V249L569 140Z" />
<glyph unicode="&#xbd;" glyph-name="onehalf" horiz-adv-x="801" d="M146 350Q124 350 124 372V595L69 553Q62 548 53 549T38 558L18 585Q12 593 13 601T22 616L125 693Q135 700 148 700H192Q214 700 214 678V372Q214 350 192 350H146ZM97 0Q76 0 76 20Q76 26
80 31L573 681Q580 690 587 695T607 700H648Q669 700 669 680Q669 674 665 669L172 19Q165 10 159 5T138 0H97ZM503 0Q481 0 481 22V50Q481 58 486 65T505 83Q564 127 600 153T654 199T671 241Q671 259 659 270T625 282Q606 282 596 276T582 262T575 249Q569 238
564 235T551 231H507Q488 231 489 250Q491 279 509 302T558 340T625 355Q687 355 723 323T759 244Q759 210 744 185T697 134T619 75H751Q773 75 773 53V22Q773 0 751 0H503Z" />
<glyph unicode="&#xbe;" glyph-name="threequarters" horiz-adv-x="883" d="M169 345Q118 345 87 359T42 393T25 432Q24 442 31 446T42 451H74Q82 451 89 449T103 443Q111 438 116 433T133 423T166 419Q193 419 209 429T225 457Q225 479 210 486T170 494H126Q117
494 111 500T105 515V537Q105 544 108 549T116 559L185 623H63Q41 623 41 645V678Q41 700 63 700H277Q299 700 299 678V649Q299 639 297 632T285 616L217 559Q266 554 291 527T316 455Q316 405 277 375T169 345ZM169 0Q148 0 148 20Q148 26 152 31L645 681Q652
690 659 695T679 700H720Q741 700 741 680Q741 674 737 669L244 19Q237 10 231 5T210 0H169ZM738 0Q716 0 716 22V63H568Q546 63 546 85V121Q546 123 547 131T558 151L691 332Q699 343 706 346T721 350H782Q804 350 804 328V142H839Q861 142 861 120V85Q861 63
839 63H804V22Q804 0 782 0H738ZM641 140H718V249L641 140Z" />
<glyph unicode="&#xbf;" glyph-name="questiondown" horiz-adv-x="558" d="M322 332Q332 332 337 326T343 311Q343 303 343 295T343 279Q339 241 322 210T281 154T234 106T194 61T174 13Q171 -15 185 -35T224 -66T276 -77Q323 -77 353 -54T394 20Q397 33 404 38T423
44H508Q518 44 524 37T530 19Q529 -21 512 -58T461 -126T379 -173T269 -191Q201 -191 155 -174T81 -128T41 -67T30 -4Q32 34 47 64T84 120T129 170T169 219T193 272Q195 281 196 289T198 307Q202 319 208 325T225 332H322ZM326 519Q336 519 343 513T350 495V408Q350
398 343 391T326 383H229Q218 383 211 390T204 408V495Q204 506 211 512T229 519H326Z" />
<glyph unicode="&#xc0;" glyph-name="Agrave" horiz-adv-x="693" d="M35 0Q27 0 21 6T14 21Q14 25 16 30L257 675Q260 685 268 692T292 700H401Q416 700 424 693T436 675L677 30Q678 25 678 21Q678 12 672 6T658 0H571Q557 0 551 6T542 19L495 141H198L151 19Q149
13 143 7T122 0H35ZM233 256H460L346 565L233 256ZM328 750Q315 750 308 753T292 763L168 865Q163 870 163 877Q163 896 182 896H289Q302 896 309 893T326 878L408 779Q413 774 413 766Q413 750 397 750H328Z" />
<glyph unicode="&#xc1;" glyph-name="Aacute" horiz-adv-x="693" d="M35 0Q27 0 21 6T14 21Q14 25 16 30L257 675Q260 685 268 692T292 700H401Q416 700 424 693T436 675L677 30Q678 25 678 21Q678 12 672 6T658 0H571Q557 0 551 6T542 19L495 141H198L151 19Q149
13 143 7T122 0H35ZM233 256H460L346 565L233 256ZM302 750Q286 750 286 766Q286 774 291 779L372 878Q382 889 389 892T409 896H516Q535 896 535 877Q535 870 530 865L406 763Q398 756 391 753T371 750H302Z" />
<glyph unicode="&#xc2;" glyph-name="Acircumflex" horiz-adv-x="693" d="M35 0Q27 0 21 6T14 21Q14 25 16 30L257 675Q260 685 268 692T292 700H401Q416 700 424 693T436 675L677 30Q678 25 678 21Q678 12 672 6T658 0H571Q557 0 551 6T542 19L495 141H198L151
19Q149 13 143 7T122 0H35ZM233 256H460L346 565L233 256ZM192 750Q177 750 177 763Q177 771 186 780L284 880Q294 891 301 893T318 896H376Q386 896 393 894T410 880L508 780Q517 771 517 763Q517 750 502 750H463Q455 750 447 751T432 757L347 810L262 757Q256
753 248 752T231 750H192Z" />
<glyph unicode="&#xc3;" glyph-name="Atilde" horiz-adv-x="693" d="M35 0Q27 0 21 6T14 21Q14 25 16 30L257 675Q260 685 268 692T292 700H401Q416 700 424 693T436 675L677 30Q678 25 678 21Q678 12 672 6T658 0H571Q557 0 551 6T542 19L495 141H198L151 19Q149
13 143 7T122 0H35ZM233 256H460L346 565L233 256ZM403 745Q377 745 360 753T328 771T298 780Q285 780 280 773T269 758T253 750H207Q200 750 195 755T190 767Q190 782 195 801T213 837T245 866T289 877Q316 877 333 869T365 851T395 842Q408 842 413 850T424 865T440
873H486Q494 873 498 868T503 855Q503 840 497 821T479 785T448 757T403 745Z" />
<glyph unicode="&#xc4;" glyph-name="Adieresis" horiz-adv-x="693" d="M35 0Q27 0 21 6T14 21Q14 25 16 30L257 675Q260 685 268 692T292 700H401Q416 700 424 693T436 675L677 30Q678 25 678 21Q678 12 672 6T658 0H571Q557 0 551 6T542 19L495 141H198L151
19Q149 13 143 7T122 0H35ZM233 256H460L346 565L233 256ZM418 750Q408 750 402 756T396 772V845Q396 855 402 861T418 868H491Q501 868 507 862T514 845V772Q514 762 508 756T491 750H418ZM200 750Q190 750 184 756T178 772V845Q178 855 184 861T200 868H273Q283
868 289 862T296 845V772Q296 762 290 756T273 750H200Z" />
<glyph unicode="&#xc5;" glyph-name="Aring" horiz-adv-x="693" d="M35 0Q27 0 21 6T14 21Q14 25 16 30L257 675Q260 685 268 692T292 700H401Q416 700 424 693T436 675L677 30Q678 25 678 21Q678 12 672 6T658 0H571Q557 0 551 6T542 19L495 141H198L151 19Q149
13 143 7T122 0H35ZM233 256H460L346 565L233 256ZM347 740Q311 740 285 763T259 823Q259 859 285 882T347 906Q383 906 409 883T435 823Q435 787 409 764T347 740ZM347 793Q360 793 368 801T377 823Q377 836 369 844T347 853Q334 853 326 845T317 823Q317 810
325 802T347 793Z" />
<glyph unicode="&#xc6;" glyph-name="AE" horiz-adv-x="955" d="M25 0Q17 0 11 6T5 21Q5 26 7 32Q15 54 24 78T47 134T82 213T134 322T210 473T315 675Q320 686 328 693T349 700H874Q885 700 892 693T899 675V609Q899 599 892 592T874 585H557V408H852Q863 408
870 402T877 384V322Q877 311 870 305T852 298H557V115H882Q893 115 900 108T907 90V24Q907 14 900 7T882 0H446Q436 0 429 7T422 24V141H206Q186 103 174 80T155 45T147 28T143 19Q140 12 134 6T114 0H25ZM247 256H422V581H409L247 256Z" />
<glyph unicode="&#xc7;" glyph-name="Ccedilla" horiz-adv-x="684" d="M343 -220Q316 -219 295 -210T264 -189T263 -169L280 -154Q289 -146 296 -149T313 -159T343 -166Q359 -166 369 -157T380 -132Q380 -118 370 -109T343 -100Q330 -100 320 -103T302 -108T286
-102L268 -84Q262 -77 263 -70T270 -53L290 -6Q215 4 164 38T85 128T54 261Q53 302 53 349T54 439Q58 523 92 584T191 677T348 710Q416 710 470 692T562 643T621 569T643 478Q644 469 638 463T622 457H527Q516 457 509 462T499 481Q483 547 444 571T347 595Q280
595 240 558T197 434Q194 352 197 266Q200 180 240 143T347 105Q405 105 444 129T499 219Q502 233 509 238T527 243H622Q631 243 637 237T643 222Q642 173 621 131T562 58T470 8T348 -10L327 -53Q333 -50 343 -48T361 -46Q396 -46 417 -70T439 -131Q439 -169 415
-195T343 -220Z" />
<glyph unicode="&#xc8;" glyph-name="Egrave" d="M102 0Q92 0 85 7T78 24V675Q78 686 85 693T102 700H542Q553 700 560 693T567 675V609Q567 599 560 592T542 585H213V408H520Q531 408 538 402T545 384V322Q545 311 538 305T520 298H213V115H550Q561 115 568 108T575
90V24Q575 14 568 7T550 0H102ZM293 750Q280 750 273 753T257 763L133 865Q128 870 128 877Q128 896 147 896H254Q267 896 274 893T291 878L373 779Q378 774 378 766Q378 750 362 750H293Z" />
<glyph unicode="&#xc9;" glyph-name="Eacute" d="M102 0Q92 0 85 7T78 24V675Q78 686 85 693T102 700H542Q553 700 560 693T567 675V609Q567 599 560 592T542 585H213V408H520Q531 408 538 402T545 384V322Q545 311 538 305T520 298H213V115H550Q561 115 568 108T575
90V24Q575 14 568 7T550 0H102ZM267 750Q251 750 251 766Q251 774 256 779L337 878Q347 889 354 892T374 896H481Q500 896 500 877Q500 870 495 865L371 763Q363 756 356 753T336 750H267Z" />
<glyph unicode="&#xca;" glyph-name="Ecircumflex" d="M102 0Q92 0 85 7T78 24V675Q78 686 85 693T102 700H542Q553 700 560 693T567 675V609Q567 599 560 592T542 585H213V408H520Q531 408 538 402T545 384V322Q545 311 538 305T520 298H213V115H550Q561 115
568 108T575 90V24Q575 14 568 7T550 0H102ZM156 750Q141 750 141 763Q141 771 150 780L248 880Q258 891 265 893T282 896H340Q350 896 357 894T374 880L472 780Q481 771 481 763Q481 750 466 750H427Q419 750 411 751T396 757L311 810L226 757Q220 753 212 752T195
750H156Z" />
<glyph unicode="&#xcb;" glyph-name="Edieresis" d="M102 0Q92 0 85 7T78 24V675Q78 686 85 693T102 700H542Q553 700 560 693T567 675V609Q567 599 560 592T542 585H213V408H520Q531 408 538 402T545 384V322Q545 311 538 305T520 298H213V115H550Q561 115 568
108T575 90V24Q575 14 568 7T550 0H102ZM383 750Q373 750 367 756T361 772V845Q361 855 367 861T383 868H456Q466 868 472 862T479 845V772Q479 762 473 756T456 750H383ZM165 750Q155 750 149 756T143 772V845Q143 855 149 861T165 868H238Q248 868 254 862T261
845V772Q261 762 255 756T238 750H165Z" />
<glyph unicode="&#xcc;" glyph-name="Igrave" horiz-adv-x="299" d="M102 0Q92 0 85 7T78 24V676Q78 686 85 693T102 700H196Q207 700 213 693T220 676V24Q220 14 214 7T196 0H102ZM131 750Q118 750 111 753T95 763L-29 865Q-34 870 -34 877Q-34 896 -15 896H92Q105
896 112 893T129 878L211 779Q216 774 216 766Q216 750 200 750H131Z" />
<glyph unicode="&#xcd;" glyph-name="Iacute" horiz-adv-x="299" d="M102 0Q92 0 85 7T78 24V676Q78 686 85 693T102 700H196Q207 700 213 693T220 676V24Q220 14 214 7T196 0H102ZM361 750Q345 750 345 766Q345 774 350 779L431 878Q441 889 448 892T468 896H575Q594
896 594 877Q594 870 589 865L465 763Q457 756 450 753T430 750H361Z" />
<glyph unicode="&#xce;" glyph-name="Icircumflex" horiz-adv-x="299" d="M102 0Q92 0 85 7T78 24V676Q78 686 85 693T102 700H196Q207 700 213 693T220 676V24Q220 14 214 7T196 0H102ZM251 750Q236 750 236 763Q236 771 245 780L343 880Q353 891 360 893T377
896H435Q445 896 452 894T469 880L567 780Q576 771 576 763Q576 750 561 750H522Q514 750 506 751T491 757L406 810L321 757Q315 753 307 752T290 750H251Z" />
<glyph unicode="&#xcf;" glyph-name="Idieresis" horiz-adv-x="299" d="M102 0Q92 0 85 7T78 24V676Q78 686 85 693T102 700H196Q207 700 213 693T220 676V24Q220 14 214 7T196 0H102ZM477 750Q467 750 461 756T455 772V845Q455 855 461 861T477 868H550Q560 868
566 862T573 845V772Q573 762 567 756T550 750H477ZM259 750Q249 750 243 756T237 772V845Q237 855 243 861T259 868H332Q342 868 348 862T355 845V772Q355 762 349 756T332 750H259Z" />
<glyph unicode="&#xd0;" glyph-name="Eth" horiz-adv-x="717" d="M116 0Q105 0 98 7T91 24V303H39Q28 303 22 309T15 327V377Q15 387 21 394T39 401H91V675Q91 686 98 693T116 700H359Q460 700 526 669T626 577T660 428Q661 386 661 351T660 273Q659 180 627 120T529
30T362 0H116ZM230 115H359Q415 115 449 131T500 182T517 276Q518 304 518 327T518 374T517 425Q516 507 479 546T356 585H230V401H342Q353 401 359 394T366 377V327Q366 316 360 310T342 303H230V115Z" />
<glyph unicode="&#xd1;" glyph-name="Ntilde" horiz-adv-x="707" d="M102 0Q92 0 85 7T78 24V675Q78 686 85 693T102 700H179Q193 700 199 694T208 684L496 236V675Q496 686 502 693T520 700H604Q615 700 622 693T629 675V25Q629 14 622 7T605 0H527Q513 0 507
7T498 16L211 454V24Q211 14 204 7T186 0H102ZM409 745Q383 745 366 753T334 771T304 780Q291 780 286 773T275 758T259 750H213Q206 750 201 755T196 767Q196 782 201 801T219 837T251 866T295 877Q322 877 339 869T371 851T401 842Q414 842 419 850T430 865T446
873H492Q500 873 504 868T509 855Q509 840 503 821T485 785T454 757T409 745Z" />
<glyph unicode="&#xd2;" glyph-name="Ograve" horiz-adv-x="695" d="M347 -10Q258 -10 194 19T94 110T55 264Q54 307 54 349T55 435Q58 526 95 587T196 679T347 710Q433 710 498 679T600 587T640 435Q642 391 642 349T640 264Q637 172 601 111T501 20T347 -10ZM347
105Q412 105 453 143T497 269Q499 313 499 350T497 431Q495 489 476 525T423 578T347 595Q305 595 272 579T220 526T198 431Q197 388 197 351T198 269Q201 182 242 144T347 105ZM329 750Q316 750 309 753T293 763L169 865Q164 870 164 877Q164 896 183 896H290Q303
896 310 893T327 878L409 779Q414 774 414 766Q414 750 398 750H329Z" />
<glyph unicode="&#xd3;" glyph-name="Oacute" horiz-adv-x="695" d="M347 -10Q258 -10 194 19T94 110T55 264Q54 307 54 349T55 435Q58 526 95 587T196 679T347 710Q433 710 498 679T600 587T640 435Q642 391 642 349T640 264Q637 172 601 111T501 20T347 -10ZM347
105Q412 105 453 143T497 269Q499 313 499 350T497 431Q495 489 476 525T423 578T347 595Q305 595 272 579T220 526T198 431Q197 388 197 351T198 269Q201 182 242 144T347 105ZM302 750Q286 750 286 766Q286 774 291 779L372 878Q382 889 389 892T409 896H516Q535
896 535 877Q535 870 530 865L406 763Q398 756 391 753T371 750H302Z" />
<glyph unicode="&#xd4;" glyph-name="Ocircumflex" horiz-adv-x="695" d="M347 -10Q258 -10 194 19T94 110T55 264Q54 307 54 349T55 435Q58 526 95 587T196 679T347 710Q433 710 498 679T600 587T640 435Q642 391 642 349T640 264Q637 172 601 111T501 20T347
-10ZM347 105Q412 105 453 143T497 269Q499 313 499 350T497 431Q495 489 476 525T423 578T347 595Q305 595 272 579T220 526T198 431Q197 388 197 351T198 269Q201 182 242 144T347 105ZM192 750Q177 750 177 763Q177 771 186 780L284 880Q294 891 301 893T318
896H376Q386 896 393 894T410 880L508 780Q517 771 517 763Q517 750 502 750H463Q455 750 447 751T432 757L347 810L262 757Q256 753 248 752T231 750H192Z" />
<glyph unicode="&#xd5;" glyph-name="Otilde" horiz-adv-x="695" d="M347 -10Q258 -10 194 19T94 110T55 264Q54 307 54 349T55 435Q58 526 95 587T196 679T347 710Q433 710 498 679T600 587T640 435Q642 391 642 349T640 264Q637 172 601 111T501 20T347 -10ZM347
105Q412 105 453 143T497 269Q499 313 499 350T497 431Q495 489 476 525T423 578T347 595Q305 595 272 579T220 526T198 431Q197 388 197 351T198 269Q201 182 242 144T347 105ZM403 745Q377 745 360 753T328 771T298 780Q285 780 280 773T269 758T253 750H207Q200
750 195 755T190 767Q190 782 195 801T213 837T245 866T289 877Q316 877 333 869T365 851T395 842Q408 842 413 850T424 865T440 873H486Q494 873 498 868T503 855Q503 840 497 821T479 785T448 757T403 745Z" />
<glyph unicode="&#xd6;" glyph-name="Odieresis" horiz-adv-x="695" d="M347 -10Q258 -10 194 19T94 110T55 264Q54 307 54 349T55 435Q58 526 95 587T196 679T347 710Q433 710 498 679T600 587T640 435Q642 391 642 349T640 264Q637 172 601 111T501 20T347 -10ZM347
105Q412 105 453 143T497 269Q499 313 499 350T497 431Q495 489 476 525T423 578T347 595Q305 595 272 579T220 526T198 431Q197 388 197 351T198 269Q201 182 242 144T347 105ZM419 750Q409 750 403 756T397 772V845Q397 855 403 861T419 868H492Q502 868 508
862T515 845V772Q515 762 509 756T492 750H419ZM201 750Q191 750 185 756T179 772V845Q179 855 185 861T201 868H274Q284 868 290 862T297 845V772Q297 762 291 756T274 750H201Z" />
<glyph unicode="&#xd7;" glyph-name="multiply" horiz-adv-x="581" d="M116 69L61 125Q54 132 54 141T61 158L201 298L61 439Q54 446 54 455T61 473L116 529Q124 536 133 536T150 529L290 388L431 528Q438 536 447 536T464 528L520 472Q528 465 528 456T520 439L380
298L520 159Q528 151 528 142T520 125L464 69Q457 62 448 62T431 69L290 209L150 69Q143 62 134 62T116 69Z" />
<glyph unicode="&#xd8;" glyph-name="Oslash" horiz-adv-x="695" d="M347 -10Q258 -10 194 19T94 110T55 264Q54 307 54 349T55 435Q58 526 95 587T196 679T347 710Q433 710 498 679T600 587T640 435Q642 391 642 349T640 264Q637 172 601 111T501 20T347 -10ZM347
105Q412 105 453 143T497 269Q499 313 499 350T497 431Q495 489 476 525T423 578T347 595Q305 595 272 579T220 526T198 431Q197 388 197 351T198 269Q201 182 242 144T347 105ZM94 191Q81 191 76 202T78 226L549 1006Q551 1010 556 1015T571 1021H601Q613 1021
618 1011T616 987L144 206Q142 202 137 197T121 191H94Z" />
<glyph unicode="&#xd9;" glyph-name="Ugrave" horiz-adv-x="713" d="M357 -10Q270 -10 206 19T107 110T72 268V675Q72 686 79 693T96 700H187Q198 700 204 693T211 675V268Q211 186 250 147T357 107Q425 107 463 146T502 268V675Q502 686 509 693T527 700H617Q628
700 634 693T641 675V268Q641 172 607 111T509 20T357 -10ZM339 750Q326 750 319 753T303 763L179 865Q174 870 174 877Q174 896 193 896H300Q313 896 320 893T337 878L419 779Q424 774 424 766Q424 750 408 750H339Z" />
<glyph unicode="&#xda;" glyph-name="Uacute" horiz-adv-x="713" d="M357 -10Q270 -10 206 19T107 110T72 268V675Q72 686 79 693T96 700H187Q198 700 204 693T211 675V268Q211 186 250 147T357 107Q425 107 463 146T502 268V675Q502 686 509 693T527 700H617Q628
700 634 693T641 675V268Q641 172 607 111T509 20T357 -10ZM312 750Q296 750 296 766Q296 774 301 779L382 878Q392 889 399 892T419 896H526Q545 896 545 877Q545 870 540 865L416 763Q408 756 401 753T381 750H312Z" />
<glyph unicode="&#xdb;" glyph-name="Ucircumflex" horiz-adv-x="713" d="M357 -10Q270 -10 206 19T107 110T72 268V675Q72 686 79 693T96 700H187Q198 700 204 693T211 675V268Q211 186 250 147T357 107Q425 107 463 146T502 268V675Q502 686 509 693T527 700H617Q628
700 634 693T641 675V268Q641 172 607 111T509 20T357 -10ZM202 750Q187 750 187 763Q187 771 196 780L294 880Q304 891 311 893T328 896H386Q396 896 403 894T420 880L518 780Q527 771 527 763Q527 750 512 750H473Q465 750 457 751T442 757L357 810L272 757Q266
753 258 752T241 750H202Z" />
<glyph unicode="&#xdc;" glyph-name="Udieresis" horiz-adv-x="713" d="M357 -10Q270 -10 206 19T107 110T72 268V675Q72 686 79 693T96 700H187Q198 700 204 693T211 675V268Q211 186 250 147T357 107Q425 107 463 146T502 268V675Q502 686 509 693T527 700H617Q628
700 634 693T641 675V268Q641 172 607 111T509 20T357 -10ZM429 750Q419 750 413 756T407 772V845Q407 855 413 861T429 868H502Q512 868 518 862T525 845V772Q525 762 519 756T502 750H429ZM211 750Q201 750 195 756T189 772V845Q189 855 195 861T211 868H284Q294
868 300 862T307 845V772Q307 762 301 756T284 750H211Z" />
<glyph unicode="&#xdd;" glyph-name="Yacute" horiz-adv-x="664" d="M286 0Q276 0 269 7T262 24V250L26 668Q25 670 24 673T23 679Q23 688 29 694T43 700H132Q144 700 151 694T162 681L332 390L501 681Q505 688 512 694T532 700H620Q629 700 635 694T641 679Q641
676 641 673T638 668L402 250V24Q402 14 395 7T377 0H286ZM287 750Q271 750 271 766Q271 774 276 779L357 878Q367 889 374 892T394 896H501Q520 896 520 877Q520 870 515 865L391 763Q383 756 376 753T356 750H287Z" />
<glyph unicode="&#xde;" glyph-name="Thorn" horiz-adv-x="662" d="M102 0Q92 0 85 7T78 24V676Q78 686 85 693T102 700H197Q208 700 214 693T221 676V575H368Q447 575 505 550T596 476T628 352Q628 278 596 230T506 157T368 133H221V24Q221 14 215 7T197 0H102ZM219
244H365Q423 244 454 271T485 353Q485 403 456 433T365 464H219V244Z" />
<glyph unicode="&#xdf;" glyph-name="germandbls" horiz-adv-x="614" d="M91 0Q81 0 74 7T67 24V482Q67 544 92 595T169 678T307 710Q392 710 444 681T519 609T543 517Q543 481 533 454T504 407T466 376Q505 362 528 337T562 279T572 208Q572 172 559 136T516
68T441 19T330 0H272Q259 0 252 7T245 24V79Q245 89 252 96T272 103H311Q372 103 404 134T436 212Q436 259 404 290T310 322H270Q258 322 252 329T245 346V394Q245 405 250 411T270 418H304Q359 419 388 443T417 512Q417 553 387 580T307 607Q257 607 227 577T197
482V24Q197 14 191 7T173 0H91Z" />
<glyph unicode="&#xe0;" glyph-name="agrave" horiz-adv-x="571" d="M217 -10Q165 -10 123 10T57 65T32 143Q32 213 89 254T238 310L375 330V351Q375 393 354 416T282 439Q246 439 224 425T190 386Q182 373 167 373H88Q77 373 72 379T66 395Q67 411 79 434T117
478T184 515T283 530Q346 530 389 515T459 473T497 412T509 338V24Q509 14 502 7T485 0H404Q393 0 387 7T380 24V63Q367 45 345 28T292 1T217 -10ZM251 85Q286 85 314 100T359 146T376 226V247L276 231Q217 222 188 202T159 153Q159 131 172 116T207 93T251 85ZM270
595Q258 595 251 598T235 608L110 710Q105 715 105 722Q105 741 124 741H224Q237 741 244 738T261 723L343 624Q348 619 348 611Q348 595 332 595H270Z" />
<glyph unicode="&#xe1;" glyph-name="aacute" horiz-adv-x="571" d="M217 -10Q165 -10 123 10T57 65T32 143Q32 213 89 254T238 310L375 330V351Q375 393 354 416T282 439Q246 439 224 425T190 386Q182 373 167 373H88Q77 373 72 379T66 395Q67 411 79 434T117
478T184 515T283 530Q346 530 389 515T459 473T497 412T509 338V24Q509 14 502 7T485 0H404Q393 0 387 7T380 24V63Q367 45 345 28T292 1T217 -10ZM251 85Q286 85 314 100T359 146T376 226V247L276 231Q217 222 188 202T159 153Q159 131 172 116T207 93T251 85ZM241
595Q225 595 225 611Q225 619 230 624L311 723Q321 734 328 737T348 741H448Q467 741 467 722Q467 715 462 710L338 608Q330 601 323 598T302 595H241Z" />
<glyph unicode="&#xe2;" glyph-name="acircumflex" horiz-adv-x="571" d="M217 -10Q165 -10 123 10T57 65T32 143Q32 213 89 254T238 310L375 330V351Q375 393 354 416T282 439Q246 439 224 425T190 386Q182 373 167 373H88Q77 373 72 379T66 395Q67 411 79 434T117
478T184 515T283 530Q346 530 389 515T459 473T497 412T509 338V24Q509 14 502 7T485 0H404Q393 0 387 7T380 24V63Q367 45 345 28T292 1T217 -10ZM251 85Q286 85 314 100T359 146T376 226V247L276 231Q217 222 188 202T159 153Q159 131 172 116T207 93T251 85ZM131
595Q116 595 116 608Q116 616 125 625L222 725Q233 736 240 738T256 741H311Q320 741 327 739T345 725L442 625Q451 616 451 608Q451 595 436 595H400Q392 595 384 596T368 602L284 655L199 602Q192 598 184 597T168 595H131Z" />
<glyph unicode="&#xe3;" glyph-name="atilde" horiz-adv-x="571" d="M217 -10Q165 -10 123 10T57 65T32 143Q32 213 89 254T238 310L375 330V351Q375 393 354 416T282 439Q246 439 224 425T190 386Q182 373 167 373H88Q77 373 72 379T66 395Q67 411 79 434T117
478T184 515T283 530Q346 530 389 515T459 473T497 412T509 338V24Q509 14 502 7T485 0H404Q393 0 387 7T380 24V63Q367 45 345 28T292 1T217 -10ZM251 85Q286 85 314 100T359 146T376 226V247L276 231Q217 222 188 202T159 153Q159 131 172 116T207 93T251 85ZM338
590Q312 590 296 598T267 616T237 625Q224 625 219 618T208 603T192 595H146Q139 595 134 600T129 612Q129 627 134 645T152 681T182 708T226 719Q253 719 269 711T298 693T328 684Q341 684 346 692T357 707T373 715H419Q427 715 431 710T436 697Q436 682 431 664T413
628T383 601T338 590Z" />
<glyph unicode="&#xe4;" glyph-name="adieresis" horiz-adv-x="571" d="M217 -10Q165 -10 123 10T57 65T32 143Q32 213 89 254T238 310L375 330V351Q375 393 354 416T282 439Q246 439 224 425T190 386Q182 373 167 373H88Q77 373 72 379T66 395Q67 411 79 434T117
478T184 515T283 530Q346 530 389 515T459 473T497 412T509 338V24Q509 14 502 7T485 0H404Q393 0 387 7T380 24V63Q367 45 345 28T292 1T217 -10ZM251 85Q286 85 314 100T359 146T376 226V247L276 231Q217 222 188 202T159 153Q159 131 172 116T207 93T251 85ZM340
614Q330 614 324 620T318 636V709Q318 719 324 725T340 732H413Q423 732 429 726T436 709V636Q436 626 430 620T413 614H340ZM152 614Q142 614 136 620T130 636V709Q130 719 136 725T152 732H225Q235 732 241 726T248 709V636Q248 626 242 620T225 614H152Z" />
<glyph unicode="&#xe5;" glyph-name="aring" horiz-adv-x="571" d="M217 -10Q165 -10 123 10T57 65T32 143Q32 213 89 254T238 310L375 330V351Q375 393 354 416T282 439Q246 439 224 425T190 386Q182 373 167 373H88Q77 373 72 379T66 395Q67 411 79 434T117
478T184 515T283 530Q346 530 389 515T459 473T497 412T509 338V24Q509 14 502 7T485 0H404Q393 0 387 7T380 24V63Q367 45 345 28T292 1T217 -10ZM251 85Q286 85 314 100T359 146T376 226V247L276 231Q217 222 188 202T159 153Q159 131 172 116T207 93T251 85ZM283
590Q247 590 221 613T195 673Q195 709 221 732T283 756Q319 756 345 733T371 673Q371 637 345 614T283 590ZM283 643Q296 643 304 651T313 673Q313 686 305 694T283 703Q270 703 262 695T253 673Q253 660 261 652T283 643Z" />
<glyph unicode="&#xe6;" glyph-name="ae" horiz-adv-x="903" d="M226 -10Q167 -10 123 10T56 65T32 143Q32 213 89 255T239 311L376 331V352Q376 394 355 416T283 439Q254 439 235 430T203 408T180 385Q177 378 174 376T165 373H88Q79 373 73 379T66 395Q66 411
78 434T117 478T184 515T284 530Q352 530 392 511T453 463Q482 493 522 511T619 530Q690 530 737 506T811 443T850 358T862 266V245Q862 235 855 228T837 221H511V213Q512 167 527 138T567 96T618 83Q644 83 669 94T712 129Q720 140 726 143T743 146H827Q849 146
849 125Q849 111 835 88T792 43T720 6T618 -10Q550 -10 503 14T427 80Q392 32 340 11T226 -10ZM252 85Q287 85 315 100T360 146T377 226V247L277 231Q217 222 189 202T160 153Q160 131 173 116T207 93T252 85ZM511 305H726V309Q726 367 700 403T619 439Q591 439
567 425T528 383T511 309V305Z" />
<glyph unicode="&#xe7;" glyph-name="ccedilla" horiz-adv-x="571" d="M290 -220Q262 -219 241 -210T210 -189T210 -169L227 -154Q236 -146 242 -149T259 -159T290 -166Q305 -166 316 -157T327 -132Q327 -118 317 -109T290 -100Q276 -100 266 -103T248 -108T232
-102L214 -84Q208 -77 210 -70T216 -53L237 -5Q151 8 100 66T46 220Q45 235 45 259T46 300Q49 373 79 424T164 503T291 530Q355 530 400 513T474 468T517 411T533 357Q534 346 527 340T509 333H421Q411 333 406 338T395 353Q380 393 356 409T293 426Q243 426 214
395T182 295Q180 257 182 225Q184 156 213 125T293 94Q332 94 356 110T395 167Q400 177 405 182T421 187H509Q519 187 526 181T533 163Q532 141 518 112T476 55T403 9T294 -10L273 -53Q279 -50 289 -48T308 -46Q343 -46 364 -70T386 -131Q386 -169 361 -195T290
-220Z" />
<glyph unicode="&#xe8;" glyph-name="egrave" horiz-adv-x="577" d="M290 -10Q179 -10 114 54T44 236Q43 246 43 261T44 286Q48 362 78 416T163 500T290 530Q371 530 426 497T509 404T537 266V245Q537 235 530 228T512 221H180Q180 221 180 218T180 213Q181 178
193 149T230 101T289 83Q317 83 336 91T367 111T384 129Q393 141 398 143T415 146H501Q511 146 517 140T523 125Q522 109 507 86T462 41T390 5T290 -10ZM180 305H401V308Q401 347 388 376T350 422T290 439Q255 439 230 423T193 377T180 308V305ZM276 595Q264 595
257 598T241 608L116 710Q111 715 111 722Q111 741 130 741H230Q243 741 250 738T267 723L349 624Q354 619 354 611Q354 595 338 595H276Z" />
<glyph unicode="&#xe9;" glyph-name="eacute" horiz-adv-x="577" d="M290 -10Q179 -10 114 54T44 236Q43 246 43 261T44 286Q48 362 78 416T163 500T290 530Q371 530 426 497T509 404T537 266V245Q537 235 530 228T512 221H180Q180 221 180 218T180 213Q181 178
193 149T230 101T289 83Q317 83 336 91T367 111T384 129Q393 141 398 143T415 146H501Q511 146 517 140T523 125Q522 109 507 86T462 41T390 5T290 -10ZM180 305H401V308Q401 347 388 376T350 422T290 439Q255 439 230 423T193 377T180 308V305ZM247 595Q231 595
231 611Q231 619 236 624L317 723Q327 734 334 737T354 741H454Q473 741 473 722Q473 715 468 710L344 608Q336 601 329 598T308 595H247Z" />
<glyph unicode="&#xea;" glyph-name="ecircumflex" horiz-adv-x="577" d="M290 -10Q179 -10 114 54T44 236Q43 246 43 261T44 286Q48 362 78 416T163 500T290 530Q371 530 426 497T509 404T537 266V245Q537 235 530 228T512 221H180Q180 221 180 218T180 213Q181
178 193 149T230 101T289 83Q317 83 336 91T367 111T384 129Q393 141 398 143T415 146H501Q511 146 517 140T523 125Q522 109 507 86T462 41T390 5T290 -10ZM180 305H401V308Q401 347 388 376T350 422T290 439Q255 439 230 423T193 377T180 308V305ZM137 595Q122
595 122 608Q122 616 131 625L228 725Q239 736 246 738T262 741H317Q326 741 333 739T351 725L448 625Q457 616 457 608Q457 595 442 595H406Q398 595 390 596T374 602L290 655L205 602Q198 598 190 597T174 595H137Z" />
<glyph unicode="&#xeb;" glyph-name="edieresis" horiz-adv-x="577" d="M290 -10Q179 -10 114 54T44 236Q43 246 43 261T44 286Q48 362 78 416T163 500T290 530Q371 530 426 497T509 404T537 266V245Q537 235 530 228T512 221H180Q180 221 180 218T180 213Q181
178 193 149T230 101T289 83Q317 83 336 91T367 111T384 129Q393 141 398 143T415 146H501Q511 146 517 140T523 125Q522 109 507 86T462 41T390 5T290 -10ZM180 305H401V308Q401 347 388 376T350 422T290 439Q255 439 230 423T193 377T180 308V305ZM346 614Q336
614 330 620T324 636V709Q324 719 330 725T346 732H419Q429 732 435 726T442 709V636Q442 626 436 620T419 614H346ZM158 614Q148 614 142 620T136 636V709Q136 719 142 725T158 732H231Q241 732 247 726T254 709V636Q254 626 248 620T231 614H158Z" />
<glyph unicode="&#xec;" glyph-name="igrave" horiz-adv-x="264" d="M90 0Q80 0 73 7T66 24V496Q66 506 73 513T90 520H173Q184 520 190 513T197 496V24Q197 14 191 7T173 0H90ZM375 595Q363 595 356 598T340 608L215 710Q210 715 210 722Q210 741 229 741H329Q342
741 349 738T366 723L448 624Q453 619 453 611Q453 595 437 595H375Z" />
<glyph unicode="&#xed;" glyph-name="iacute" horiz-adv-x="264" d="M90 0Q80 0 73 7T66 24V496Q66 506 73 513T90 520H173Q184 520 190 513T197 496V24Q197 14 191 7T173 0H90ZM90 595Q74 595 74 611Q74 619 79 624L160 723Q170 734 177 737T197 741H297Q316
741 316 722Q316 715 311 710L187 608Q179 601 172 598T151 595H90Z" />
<glyph unicode="&#xee;" glyph-name="icircumflex" horiz-adv-x="264" d="M90 0Q80 0 73 7T66 24V496Q66 506 73 513T90 520H173Q184 520 190 513T197 496V24Q197 14 191 7T173 0H90ZM236 595Q221 595 221 608Q221 616 230 625L327 725Q338 736 345 738T361 741H416Q425
741 432 739T450 725L547 625Q556 616 556 608Q556 595 541 595H505Q497 595 489 596T473 602L389 655L304 602Q297 598 289 597T273 595H236Z" />
<glyph unicode="&#xef;" glyph-name="idieresis" horiz-adv-x="264" d="M90 0Q80 0 73 7T66 24V496Q66 506 73 513T90 520H173Q184 520 190 513T197 496V24Q197 14 191 7T173 0H90ZM445 614Q435 614 429 620T423 636V709Q423 719 429 725T445 732H518Q528 732
534 726T541 709V636Q541 626 535 620T518 614H445ZM257 614Q247 614 241 620T235 636V709Q235 719 241 725T257 732H330Q340 732 346 726T353 709V636Q353 626 347 620T330 614H257Z" />
<glyph unicode="&#xf0;" glyph-name="eth" horiz-adv-x="586" d="M290 -10Q212 -10 157 19T72 103T43 231Q43 304 73 358T159 441T290 470Q316 470 337 464T375 447Q356 499 324 541L219 501Q212 498 207 498Q198 498 193 503T187 517V539Q187 552 192 558T209
568L276 594Q259 610 240 626T199 658Q191 665 188 670T184 679Q184 688 190 694T205 700H293Q308 700 318 697T336 687Q350 675 364 663T390 638L482 673Q490 676 494 676Q503 676 508 671T514 657V635Q514 623 509 617T492 606L439 586Q483 529 509 451T538 255Q539
248 539 241T538 227Q537 155 507 102T423 19T290 -10ZM290 89Q328 89 353 106T390 152T403 218Q403 225 403 230T403 242Q402 278 391 307T355 353T290 371Q252 371 227 354T191 307T178 242Q178 234 178 229T178 217Q179 181 191 152T228 106T290 89Z" />
<glyph unicode="&#xf1;" glyph-name="ntilde" horiz-adv-x="624" d="M90 0Q80 0 73 7T66 24V496Q66 506 73 513T90 520H172Q182 520 189 513T196 496V455Q222 487 262 508T363 530Q424 530 469 503T538 425T563 305V24Q563 14 556 7T539 0H451Q441 0 434 7T427
24V299Q427 357 399 390T316 423Q264 423 233 390T202 299V24Q202 14 195 7T178 0H90ZM369 590Q343 590 327 598T298 616T268 625Q255 625 250 618T239 603T223 595H177Q170 595 165 600T160 612Q160 627 165 645T183 681T213 708T257 719Q284 719 300 711T329
693T359 684Q372 684 377 692T388 707T404 715H450Q458 715 462 710T467 697Q467 682 462 664T444 628T414 601T369 590Z" />
<glyph unicode="&#xf2;" glyph-name="ograve" horiz-adv-x="592" d="M296 -10Q216 -10 162 18T79 97T46 216Q45 234 45 260T46 304Q50 373 79 423T163 502T296 530Q374 530 428 502T512 424T546 304Q547 286 547 260T546 216Q542 148 514 97T431 18T296 -10ZM296
89Q349 89 378 122T410 221Q411 236 411 260T410 299Q407 364 378 397T296 431Q243 431 214 398T182 299Q181 284 181 260T182 221Q185 156 214 123T296 89ZM283 595Q271 595 264 598T248 608L123 710Q118 715 118 722Q118 741 137 741H237Q250 741 257 738T274
723L356 624Q361 619 361 611Q361 595 345 595H283Z" />
<glyph unicode="&#xf3;" glyph-name="oacute" horiz-adv-x="592" d="M296 -10Q216 -10 162 18T79 97T46 216Q45 234 45 260T46 304Q50 373 79 423T163 502T296 530Q374 530 428 502T512 424T546 304Q547 286 547 260T546 216Q542 148 514 97T431 18T296 -10ZM296
89Q349 89 378 122T410 221Q411 236 411 260T410 299Q407 364 378 397T296 431Q243 431 214 398T182 299Q181 284 181 260T182 221Q185 156 214 123T296 89ZM253 595Q237 595 237 611Q237 619 242 624L323 723Q333 734 340 737T360 741H460Q479 741 479 722Q479
715 474 710L350 608Q342 601 335 598T314 595H253Z" />
<glyph unicode="&#xf4;" glyph-name="ocircumflex" horiz-adv-x="592" d="M296 -10Q216 -10 162 18T79 97T46 216Q45 234 45 260T46 304Q50 373 79 423T163 502T296 530Q374 530 428 502T512 424T546 304Q547 286 547 260T546 216Q542 148 514 97T431 18T296 -10ZM296
89Q349 89 378 122T410 221Q411 236 411 260T410 299Q407 364 378 397T296 431Q243 431 214 398T182 299Q181 284 181 260T182 221Q185 156 214 123T296 89ZM144 595Q129 595 129 608Q129 616 138 625L235 725Q246 736 253 738T269 741H324Q333 741 340 739T358
725L455 625Q464 616 464 608Q464 595 449 595H413Q405 595 397 596T381 602L297 655L212 602Q205 598 197 597T181 595H144Z" />
<glyph unicode="&#xf5;" glyph-name="otilde" horiz-adv-x="592" d="M296 -10Q216 -10 162 18T79 97T46 216Q45 234 45 260T46 304Q50 373 79 423T163 502T296 530Q374 530 428 502T512 424T546 304Q547 286 547 260T546 216Q542 148 514 97T431 18T296 -10ZM296
89Q349 89 378 122T410 221Q411 236 411 260T410 299Q407 364 378 397T296 431Q243 431 214 398T182 299Q181 284 181 260T182 221Q185 156 214 123T296 89ZM351 590Q325 590 309 598T280 616T250 625Q237 625 232 618T221 603T205 595H159Q152 595 147 600T142
612Q142 627 147 645T165 681T195 708T239 719Q266 719 282 711T311 693T341 684Q354 684 359 692T370 707T386 715H432Q440 715 444 710T449 697Q449 682 444 664T426 628T396 601T351 590Z" />
<glyph unicode="&#xf6;" glyph-name="odieresis" horiz-adv-x="592" d="M296 -10Q216 -10 162 18T79 97T46 216Q45 234 45 260T46 304Q50 373 79 423T163 502T296 530Q374 530 428 502T512 424T546 304Q547 286 547 260T546 216Q542 148 514 97T431 18T296 -10ZM296
89Q349 89 378 122T410 221Q411 236 411 260T410 299Q407 364 378 397T296 431Q243 431 214 398T182 299Q181 284 181 260T182 221Q185 156 214 123T296 89ZM353 614Q343 614 337 620T331 636V709Q331 719 337 725T353 732H426Q436 732 442 726T449 709V636Q449
626 443 620T426 614H353ZM165 614Q155 614 149 620T143 636V709Q143 719 149 725T165 732H238Q248 732 254 726T261 709V636Q261 626 255 620T238 614H165Z" />
<glyph unicode="&#xf7;" glyph-name="divide" horiz-adv-x="546" d="M79 248Q69 248 62 255T55 272V328Q55 338 62 345T79 352H466Q477 352 483 345T490 328V272Q490 262 484 255T466 248H79ZM233 57Q222 57 216 63T209 81V156Q209 166 215 173T233 180H312Q322
180 329 173T336 156V81Q336 70 329 64T312 57H233ZM233 420Q222 420 216 427T209 445V519Q209 530 215 537T233 544H312Q322 544 329 537T336 519V445Q336 434 329 427T312 420H233Z" />
<glyph unicode="&#xf8;" glyph-name="oslash" horiz-adv-x="592" d="M296 -10Q216 -10 162 18T79 97T46 216Q45 234 45 260T46 304Q50 373 79 423T163 502T296 530Q374 530 428 502T512 424T546 304Q547 286 547 260T546 216Q542 148 514 97T431 18T296 -10ZM296
89Q349 89 378 122T410 221Q411 236 411 260T410 299Q407 364 378 397T296 431Q243 431 214 398T182 299Q181 284 181 260T182 221Q185 156 214 123T296 89ZM69 -28Q61 -28 55 -22T49 -8Q49 -5 49 -2T53 6L473 532Q476 536 481 541T496 547H522Q530 547 536 541T542
527Q542 526 542 522T538 513L118 -13Q115 -17 110 -22T95 -28H69Z" />
<glyph unicode="&#xf9;" glyph-name="ugrave" horiz-adv-x="621" d="M259 -10Q198 -10 154 17T85 95T61 215V496Q61 506 68 513T85 520H173Q184 520 190 513T197 496V221Q197 97 306 97Q358 97 388 130T419 221V496Q419 506 426 513T443 520H531Q541 520 548 513T555
496V24Q555 14 548 7T531 0H450Q439 0 433 7T426 24V65Q399 30 359 10T259 -10ZM295 595Q283 595 276 598T260 608L135 710Q130 715 130 722Q130 741 149 741H249Q262 741 269 738T286 723L368 624Q373 619 373 611Q373 595 357 595H295Z" />
<glyph unicode="&#xfa;" glyph-name="uacute" horiz-adv-x="621" d="M259 -10Q198 -10 154 17T85 95T61 215V496Q61 506 68 513T85 520H173Q184 520 190 513T197 496V221Q197 97 306 97Q358 97 388 130T419 221V496Q419 506 426 513T443 520H531Q541 520 548 513T555
496V24Q555 14 548 7T531 0H450Q439 0 433 7T426 24V65Q399 30 359 10T259 -10ZM266 595Q250 595 250 611Q250 619 255 624L336 723Q346 734 353 737T373 741H473Q492 741 492 722Q492 715 487 710L363 608Q355 601 348 598T327 595H266Z" />
<glyph unicode="&#xfb;" glyph-name="ucircumflex" horiz-adv-x="621" d="M259 -10Q198 -10 154 17T85 95T61 215V496Q61 506 68 513T85 520H173Q184 520 190 513T197 496V221Q197 97 306 97Q358 97 388 130T419 221V496Q419 506 426 513T443 520H531Q541 520
548 513T555 496V24Q555 14 548 7T531 0H450Q439 0 433 7T426 24V65Q399 30 359 10T259 -10ZM156 595Q141 595 141 608Q141 616 150 625L247 725Q258 736 265 738T281 741H336Q345 741 352 739T370 725L467 625Q476 616 476 608Q476 595 461 595H425Q417 595 409
596T393 602L309 655L224 602Q217 598 209 597T193 595H156Z" />
<glyph unicode="&#xfc;" glyph-name="udieresis" horiz-adv-x="621" d="M259 -10Q198 -10 154 17T85 95T61 215V496Q61 506 68 513T85 520H173Q184 520 190 513T197 496V221Q197 97 306 97Q358 97 388 130T419 221V496Q419 506 426 513T443 520H531Q541 520 548
513T555 496V24Q555 14 548 7T531 0H450Q439 0 433 7T426 24V65Q399 30 359 10T259 -10ZM365 614Q355 614 349 620T343 636V709Q343 719 349 725T365 732H438Q448 732 454 726T461 709V636Q461 626 455 620T438 614H365ZM177 614Q167 614 161 620T155 636V709Q155
719 161 725T177 732H250Q260 732 266 726T273 709V636Q273 626 267 620T250 614H177Z" />
<glyph unicode="&#xfd;" glyph-name="yacute" horiz-adv-x="574" d="M160 -190Q152 -190 146 -184T140 -170Q140 -166 140 -163T144 -154L222 31L30 484Q26 494 26 498Q27 507 33 513T48 520H129Q141 520 147 514T156 501L289 174L426 501Q429 509 435 514T453
520H533Q541 520 547 514T554 500Q554 494 550 484L267 -171Q263 -179 257 -184T239 -190H160ZM244 595Q228 595 228 611Q228 619 233 624L314 723Q324 734 331 737T351 741H451Q470 741 470 722Q470 715 465 710L341 608Q333 601 326 598T305 595H244Z" />
<glyph unicode="&#xfe;" glyph-name="thorn" horiz-adv-x="614" d="M91 -190Q81 -190 74 -183T67 -166V686Q67 696 74 703T91 710H177Q187 710 194 703T201 686V460Q225 492 261 511T354 530Q407 530 446 513T511 465T552 390T568 295Q569 278 569 260T568 224Q566
174 552 132T512 58T446 8T354 -10Q301 -10 263 9T201 61V-166Q201 -176 194 -183T177 -190H91ZM317 97Q360 97 384 115T419 164T432 230Q434 260 432 290Q430 326 419 356T384 404T317 423Q276 423 251 404T214 356T201 295Q200 277 200 257T201 218Q202 188 214
161T252 115T317 97Z" />
<glyph unicode="&#xff;" glyph-name="ydieresis" horiz-adv-x="574" d="M160 -190Q152 -190 146 -184T140 -170Q140 -166 140 -163T144 -154L222 31L30 484Q26 494 26 498Q27 507 33 513T48 520H129Q141 520 147 514T156 501L289 174L426 501Q429 509 435 514T453
520H533Q541 520 547 514T554 500Q554 494 550 484L267 -171Q263 -179 257 -184T239 -190H160ZM344 614Q334 614 328 620T322 636V709Q322 719 328 725T344 732H417Q427 732 433 726T440 709V636Q440 626 434 620T417 614H344ZM156 614Q146 614 140 620T134 636V709Q134
719 140 725T156 732H229Q239 732 245 726T252 709V636Q252 626 246 620T229 614H156Z" />
<glyph unicode="&#x2013;" glyph-name="endash" horiz-adv-x="571" d="M87 243Q76 243 70 250T63 267V333Q63 343 69 350T87 357H484Q494 357 501 350T508 333V267Q508 257 501 250T484 243H87Z" />
<glyph unicode="&#x2014;" glyph-name="emdash" horiz-adv-x="761" d="M87 243Q76 243 70 250T63 267V333Q63 343 69 350T87 357H674Q684 357 691 350T698 333V267Q698 257 691 250T674 243H87Z" />
<glyph unicode="&#x2018;" glyph-name="quoteleft" horiz-adv-x="253" d="M59 487Q51 487 46 492T41 506Q41 513 44 519L108 685Q113 695 120 702T141 710H192Q200 710 205 704T209 688L183 519Q182 507 174 497T151 487H59Z" />
<glyph unicode="&#x2019;" glyph-name="quoteright" horiz-adv-x="246" d="M67 487Q58 487 53 493T49 509L76 678Q78 691 85 700T108 710H200Q208 710 213 705T218 692Q218 685 215 678L151 513Q147 503 140 495T118 487H67Z" />
<glyph unicode="&#x201a;" glyph-name="quotesinglbase" horiz-adv-x="263" d="M59 -75Q50 -75 46 -69T42 -53L68 116Q70 129 77 138T101 148H192Q200 148 205 143T210 129Q210 122 207 116L143 -50Q139 -60 132 -67T110 -75H59Z" />
<glyph unicode="&#x201c;" glyph-name="quotedblleft" horiz-adv-x="443" d="M249 487Q241 487 236 492T231 506Q231 513 234 519L298 685Q303 695 310 702T331 710H382Q391 710 396 704T399 688L373 519Q372 507 364 497T341 487H249ZM59 487Q51 487 46 492T41
506Q41 513 44 519L108 685Q113 695 120 702T141 710H192Q200 710 205 704T209 688L183 519Q182 507 174 497T151 487H59Z" />
<glyph unicode="&#x201d;" glyph-name="quotedblright" horiz-adv-x="436" d="M257 487Q248 487 243 493T239 509L266 678Q268 691 275 700T298 710H390Q398 710 403 705T408 692Q408 685 405 678L341 513Q337 503 330 495T308 487H257ZM67 487Q58 487 53 493T49
509L76 678Q78 691 85 700T108 710H200Q208 710 213 705T218 692Q218 685 215 678L151 513Q147 503 140 495T118 487H67Z" />
<glyph unicode="&#x201e;" glyph-name="quotedblbase" horiz-adv-x="453" d="M249 -75Q241 -75 236 -69T232 -54L258 116Q260 129 267 138T291 148H382Q390 148 395 143T400 129Q400 122 397 116L333 -50Q329 -60 322 -67T300 -75H249ZM59 -75Q51 -75 46 -69T42
-53L68 116Q70 129 77 138T101 148H192Q200 148 205 143T210 129Q210 122 207 116L143 -50Q139 -60 132 -67T110 -75H59Z" />
<glyph unicode="&#x2022;" glyph-name="bullet" horiz-adv-x="383" d="M192 204Q160 204 134 219T91 262T75 320Q75 353 91 379T133 421T192 437Q224 437 250 421T292 379T308 320Q308 289 292 262T250 220T192 204Z" />
<glyph unicode="&#x2039;" glyph-name="guilsinglleft" horiz-adv-x="349" d="M272 76Q268 76 263 78T252 85L52 279Q44 287 41 294T36 311V347Q37 356 40 363T52 379L252 573Q258 578 263 580T272 582Q281 582 287 576T293 561V494Q293 480 289 472T275 454L146
329L275 204Q285 194 289 186T293 164V97Q293 88 287 82T272 76Z" />
<glyph unicode="&#x203a;" glyph-name="guilsinglright" horiz-adv-x="349" d="M77 76Q68 76 62 82T56 97V164Q56 178 60 186T74 204L203 329L74 454Q64 464 60 472T56 494V561Q56 570 62 576T77 582Q81 582 86 580T97 573L297 379Q305 371 308 364T313 347V311Q312
302 309 295T297 279L97 85Q92 80 87 78T77 76Z" />
</font>
</defs>
</svg>
